BILL36
超凡入圣№

[2024] [日本] [喜剧] [WEB-1080P] Sugar Sugar Honey[第01集][无字片源].Sugar.Sugar.Honey.S01.1080p.HuluJP.WEB-DL.AAC.2.0.

-->

完整标题:Sugar Sugar Honey[第01集][无字片源].Sugar.Sugar.Honey.S01.1080p.HuluJP.WEB-DL.AAC.2.0.H.264-BlackTV 0.72GB



◎标  题 Sugar Sugar Honey
◎年  代 2024
◎产  地 日本
◎类  别 喜剧 / 爱情
◎语  言 日语
◎IMDb链接 https://www.imdb.com/title//
◎豆瓣链接 https://movie.douban.com/subject/36691430/
◎导  演 加藤绫佳 Ayaka Kato
      山口雄也 Yûya Yamaguchi
◎编  剧 高桥干子 Motoko Takahashi
◎演  员 长妻怜央 Leo Nagatsuma
      川津明日香 Kawazu Asuka
      三原羽衣 Ui Mihara
      驹井莲 Ren Komai
      福冈圣菜 Seina Fukuoka
      田村心 Shin Tamura
      押田岳 Gaku Oshida
      星野奈绪 Nao Hoshino
      市川知宏 Tomohiro Ichikawa

◎简  介
    本剧改编自铃木有布子的同名漫画,讲述了原马拉松选手瑞月,以实业团隐退为契机,成为了一流酒店的职员,没有接待客人的经验,笨拙又不讨人喜欢,而且也没有恋爱经验,做事总是失败,和同事们陷入尴尬的气氛…… 迷失了自己位置的瑞月,唯一能治愈她的,就是她最喜欢的酒店甜点。就在这时,出现在瑞月面前的,是在同一家酒店工作,拈花惹草的天才甜点师梶。帅哥天才糕点师×甜点爱好者原跑步者展开的“纯洁甜美”的爱情故事拉开帷幕!

部分资源为软字幕,移动端推荐播放器:MxPlayer,nPlayer,infuse ,其他播放器请自行尝试。

部分资源为软字幕,电脑端推荐播放器:PotPlayer,完美解码,KMPLAYER,其他播放器请自行尝试。

##### MediaInfo ######
General
Unique ID : 247782477206141497020223264612609260545 (0xBA692B544492BDAC1459C3835AED7C01)
Complete name : Sugar.Sugar.Honey.S01E01.1080p.HuluJP.WEB-DL.AAC.2.0.H.264-BlackTV.mkv
Duration : 24 min 45 s
Overall bit rate : 4 130 kb/s

Video
ID : 1
Format : AVC
Format/Info : Advanced Video Codec
Format profile : High@L4
Format settings : CABAC / 4 Ref Frames
Format settings, CABAC : Yes
Format settings, Reference frames : 4 frames
Codec ID : V_MPEG4/ISO/AVC
Duration : 24 min 45 s
Bit rate : 3 874 kb/s
Width : 1 920 pixels
Height : 1 080 pixels
Display aspect ratio : 16:9
Frame rate mode : Constant
Frame rate : 29.970 (30000/1001) FPS
Color space : YUV
Chroma subsampling : 4:2:0
Bit depth : 8 bits
Scan type : Progressive
Bits/(Pixel*Frame) : 0.062
Stream size : 686 MiB (94%)
Language : Japanese
Default : Yes
Forced : No
Color range : Limited
Color primaries : BT.709
Transfer characteristics : BT.709
Matrix coefficients : BT.709

Audio
ID : 2
Format : AAC LC
Format/Info : Advanced Audio Codec Low Complexity
Codec ID : A_AAC-2
Duration : 24 min 45 s
Bit rate : 253 kb/s
Channel(s) : 2 channels
Channel layout : L R
Sampling rate : 48.0 kHz
Frame rate : 46.875 FPS (1024 SPF)
Compression mode : Lossy
Stream size : 44.9 MiB (6%)
Language : Japanese
Default : Yes
Forced : No


点击图片可查看大图

软字幕无法在截图上展现,HDR版本/杜比视界版本截图会出现颜色异常,请使用支持的设备播放!



1 个附件 售价 大小 下载 时间

Sugar.Sugar.Honey.S01.1080p.HuluJP.WEB-DL.AAC.2.0.H.264-BlackTV[1LOU.ME].torrent 0 金币 4.50K 70 次 18天前

#1楼
发帖时间:2024-02-13 10:18:02   |   回复数:0
游客组