BILL36
超凡入圣№

[2024] [其它] [剧情] [WEB-1080P] 那一年的除夕夜[第18集][中文字幕].Once.Upon.A.New.Years.Eve.S01.2024.1080p.KKTV.WEB-DL.x264.AA

-->

完整标题:那一年的除夕夜[第18集][中文字幕].Once.Upon.A.New.Years.Eve.S01.2024.1080p.KKTV.WEB-DL.x264.AAC-ZeroTV 1.02GB



◎标  题 那一年的除夕夜
◎译  名 Once Upon A New Year's Eve
◎年  代 2024
◎产  地 新加坡
◎类  别 剧情 / 家庭
◎语  言 汉语普通话
◎IMDb链接 https://www.imdb.com/title//
◎豆瓣链接 https://movie.douban.com/subject/36638238/
◎导  演 梁来玲 Lailing Liang
◎编  剧 刘清盆 Ching Poon Lau
◎演  员 戚玉武 Yuwu Qi
      刘子绚 Jesseca Liu
      张哲通 Ze Tong Zhang
      何盈莹 Ying Ying He
      黄超群 Brian Ng
      黄振隆 Desmond Ng
      田铭耀 Jeremy Chan
      卓芳娴 Yunis To
      乐瑶 Yao Le
      王玉清 Yuqing Wang

◎简  介
    野蛮霸道、唯利是图、以自我为中心的富商蔡一仁(戚玉武饰),虽然家财万贯,但是妻离子散,与最亲的人恩断义绝,在大年除夕都是一人孤零零地过。在一次阴差阳错,无心的行善后,一位神秘人流浪汉出现,给了他回到过去改变的机会……

部分资源为软字幕,移动端推荐播放器:MxPlayer,nPlayer,infuse ,其他播放器请自行尝试。

部分资源为软字幕,电脑端推荐播放器:PotPlayer,完美解码,KMPLAYER,其他播放器请自行尝试。

##### MediaInfo ######
General
Unique ID : 56631641355449659439879528292385108757 (0x2A9ADB7DD22C39493A7982AFE8E13315)
Complete name : Once.Upon.A.New.Years.Eve.S01E18.2024.1080p.KKTV.WEB-DL.x264.AAC-ZeroTV.mkv
Duration : 45 min 36 s
Overall bit rate : 3 190 kb/s

Video
ID : 1
Format : AVC
Format/Info : Advanced Video Codec
Format profile : [email protected]
Format settings : CABAC / 5 Ref Frames
Format settings, CABAC : Yes
Format settings, Reference frames : 5 frames
Codec ID : V_MPEG4/ISO/AVC
Duration : 45 min 36 s
Bit rate : 3 000 kb/s
Width : 1 920 pixels
Height : 1 080 pixels
Display aspect ratio : 16:9
Frame rate mode : Constant
Frame rate : 25.000 FPS
Color space : YUV
Chroma subsampling : 4:2:0
Bit depth : 8 bits
Scan type : Progressive
Bits/(Pixel*Frame) : 0.058
Stream size : 977 MiB (94%)
Writing library : x264 core 142
Encoding settings : cabac=1 / ref=5 / deblock=1:0:0 / analyse=0x3:0x113 / me=umh / subme=9 / psy=1 / psy_rd=1.00:0.00 / mixed_ref=1 / me_range=32 / chroma_me=1 / trellis=1 / 8x8dct=1 / cqm=0 / deadzone=21,11 / fast_pskip=1 / chroma_qp_offset=-2 / threads=12 / lookahead_threads=1 / sliced_threads=0 / nr=0 / decimate=1 / interlaced=0 / bluray_compat=0 / stitchable=1 / constrained_intra=0 / bframes=3 / b_pyramid=2 / b_adapt=1 / b_bias=0 / direct=3 / weightb=1 / open_gop=0 / weightp=2 / keyint=25 / keyint_min=2 / scenecut=0 / intra_refresh=0 / rc_lookahead=37 / rc=abr / mbtree=1 / bitrate=3000 / ratetol=1.0 / qcomp=0.60 / qpmin=0 / qpmax=69 / qpstep=4 / vbv_maxrate=4500 / vbv_bufsize=6750 / nal_hrd=none / filler=0 / ip_ratio=1.40 / aq=1:1.00
Default : Yes
Forced : No

Audio
ID : 2
Format : AAC LC
Format/Info : Advanced Audio Codec Low Complexity
Codec ID : A_AAC-2
Duration : 45 min 36 s
Bit rate : 192 kb/s
Channel(s) : 2 channels
Channel layout : L R
Sampling rate : 44.1 kHz
Frame rate : 43.066 FPS (1024 SPF)
Compression mode : Lossy
Stream size : 62.6 MiB (6%)
Default : Yes
Forced : No

Text #1
ID : 3
Format : UTF-8
Codec ID : S_TEXT/UTF8
Codec ID/Info : UTF-8 Plain Text
Duration : 44 min 32 s
Bit rate : 35 b/s
Frame rate : 0.191 FPS
Count of elements : 510
Stream size : 11.6 KiB (0%)
Title : Chinese Simplified
Language : Chinese
Default : Yes
Forced : No

Text #2
ID : 4
Format : UTF-8
Codec ID : S_TEXT/UTF8
Codec ID/Info : UTF-8 Plain Text
Duration : 44 min 4 s
Bit rate : 35 b/s
Frame rate : 0.192 FPS
Count of elements : 509
Stream size : 11.5 KiB (0%)
Title : Chinese Traditional
Language : Chinese
Default : No
Forced : No


点击图片可查看大图

软字幕无法在截图上展现,HDR版本/杜比视界版本截图会出现颜色异常,请使用支持的设备播放!



1 个附件 售价 大小 下载 时间

Once.Upon.A.New.Years.Eve.S01.2024.1080p.KKTV.WEB-DL.x264.AAC-ZeroTV[1LOU.ME].torrent 0 金币 5.28K 98 次 17天前

#1楼
发帖时间:2024-02-13 10:11:52   |   回复数:0
游客组