BILL36
超凡入圣№

[2023] [美国] [喜剧] [WEB-1080P] 说唱女团 第二季[第06集][简繁英字幕].Rap.Sht.S02.1080p.Max.WEB-DL.DDP.5.1.Atmos.H.264-BlackTV 0

-->

完整标题:说唱女团 第二季[第06集][简繁英字幕].Rap.Sht.S02.1080p.Max.WEB-DL.DDP.5.1.Atmos.H.264-BlackTV 0.99GB



◎标  题 说唱女团 第二季
◎译  名 烂俗说唱 / Rap Sh*t
◎片  名 Rap Sh!t Season 2
◎年  代 2023
◎产  地 美国
◎类  别 喜剧 / 音乐
◎语  言 英语
◎IMDb评分 6.9/10 (29人评价)
◎IMDb链接 https://www.imdb.com/title/tt22041830/
◎豆瓣链接 https://movie.douban.com/subject/36177238/
◎演  员 雅各布·吉布森 Jacob Gibson

◎简  介
    HBO Max续订《说唱女团》第二季。

部分资源为软字幕,移动端推荐播放器:MxPlayer,nPlayer,infuse ,其他播放器请自行尝试。

部分资源为软字幕,电脑端推荐播放器:PotPlayer,完美解码,KMPLAYER,其他播放器请自行尝试。

##### MediaInfo ######
General
Unique ID : 328173445157880428940752225593890570464 (0xF6E3E8104494F798134CCC53017E00E0)
Complete name : Rap.Sht.S02E06.U-Turn.1080p.Max.WEB-DL.DDP.5.1.Atmos.H.264-BlackTV.mkv
Duration : 31 min 8 s
Overall bit rate mode : Variable
Overall bit rate : 4 530 kb/s

Video
ID : 1
Format : AVC
Format/Info : Advanced Video Codec
Format profile : [email protected]
Format settings : CABAC / 4 Ref Frames
Format settings, CABAC : Yes
Format settings, Reference frames : 4 frames
Codec ID : V_MPEG4/ISO/AVC
Duration : 31 min 8 s
Bit rate mode : Variable
Bit rate : 3 887 kb/s
Maximum bit rate : 10 000 kb/s
Width : 1 920 pixels
Height : 1 080 pixels
Display aspect ratio : 16:9
Frame rate mode : Constant
Frame rate : 23.976 (24000/1001) FPS
Color space : YUV
Chroma subsampling : 4:2:0
Bit depth : 8 bits
Scan type : Progressive
Bits/(Pixel*Frame) : 0.078
Stream size : 866 MiB (86%)
Writing library : x264 core 164
Encoding settings : cabac=1 / ref=4 / deblock=1:0:0 / analyse=0x3:0x133 / me=umh / subme=10 / psy=1 / psy_rd=1.00:0.00 / mixed_ref=1 / me_range=24 / chroma_me=1 / trellis=2 / 8x8dct=1 / cqm=0 / deadzone=21,11 / fast_pskip=1 / chroma_qp_offset=-2 / threads=34 / lookahead_threads=2 / sliced_threads=0 / nr=0 / decimate=1 / interlaced=0 / bluray_compat=0 / stitchable=1 / constrained_intra=0 / bframes=3 / b_pyramid=2 / b_adapt=2 / b_bias=0 / direct=3 / weightb=1 / open_gop=0 / weightp=2 / keyint=96 / keyint_min=49 / scenecut=0 / intra_refresh=0 / rc_lookahead=96 / rc=crf / mbtree=1 / crf=20.0 / qcomp=0.60 / qpmin=0 / qpmax=69 / qpstep=4 / vbv_maxrate=10000 / vbv_bufsize=40000 / crf_max=0.0 / nal_hrd=vbr / filler=0 / ip_ratio=1.40 / aq=1:1.00
Default : Yes
Forced : No
Color range : Limited
Color primaries : BT.709
Transfer characteristics : BT.709
Matrix coefficients : BT.709

Audio
ID : 2
Format : E-AC-3 JOC
Format/Info : Enhanced AC-3 with Joint Object Coding
Commercial name : Dolby Digital Plus with Dolby Atmos
Codec ID : A_EAC3
Duration : 31 min 8 s
Bit rate mode : Constant
Bit rate : 640 kb/s
Channel(s) : 6 channels
Channel layout : L R C LFE Ls Rs
Sampling rate : 48.0 kHz
Frame rate : 31.250 FPS (1536 SPF)
Compression mode : Lossy
Stream size : 143 MiB (14%)
Language : English
Service kind : Complete Main
Default : Yes
Forced : No
Complexity index : 16
Number of dynamic objects : 15
Bed channel count : 1 channel
Bed channel configuration : LFE

Text #1
ID : 3
Format : UTF-8
Codec ID : S_TEXT/UTF8
Codec ID/Info : UTF-8 Plain Text
Duration : 31 min 6 s
Bit rate : 98 b/s
Frame rate : 0.402 FPS
Count of elements : 751
Stream size : 22.4 KiB (0%)
Title : SDH
Language : English
Default : No
Forced : No

Text #2
ID : 4
Format : UTF-8
Codec ID : S_TEXT/UTF8
Codec ID/Info : UTF-8 Plain Text
Duration : 31 min 1 s
Bit rate : 77 b/s
Frame rate : 0.352 FPS
Count of elements : 655
Stream size : 17.5 KiB (0%)
Title : Latin America (SDH)
Language : Spanish
Default : No
Forced : No

Text #3
ID : 5
Format : UTF-8
Codec ID : S_TEXT/UTF8
Codec ID/Info : UTF-8 Plain Text
Duration : 31 min 2 s
Bit rate : 76 b/s
Frame rate : 0.297 FPS
Count of elements : 554
Stream size : 17.3 KiB (0%)
Language : English
Default : No
Forced : No

Text #4
ID : 6
Format : UTF-8
Codec ID : S_TEXT/UTF8
Codec ID/Info : UTF-8 Plain Text
Duration : 29 min 50 s
Bit rate : 60 b/s
Frame rate : 0.242 FPS
Count of elements : 434
Stream size : 13.2 KiB (0%)
Title : Latin America
Language : Spanish
Default : No
Forced : No

Text #5
ID : 7
Format : UTF-8
Codec ID : S_TEXT/UTF8
Codec ID/Info : UTF-8 Plain Text
Duration : 29 min 47 s
Bit rate : 61 b/s
Frame rate : 0.262 FPS
Count of elements : 469
Stream size : 13.4 KiB (0%)
Title : Brazil
Language : Portuguese
Default : No
Forced : No

Text #6
ID : 8
Format : UTF-8
Codec ID : S_TEXT/UTF8
Codec ID/Info : UTF-8 Plain Text
Duration : 29 min 53 s
Bit rate : 55 b/s
Frame rate : 0.246 FPS
Count of elements : 441
Stream size : 12.1 KiB (0%)
Title : Simplified
Language : Chinese
Default : Yes
Forced : No

Text #7
ID : 9
Format : UTF-8
Codec ID : S_TEXT/UTF8
Codec ID/Info : UTF-8 Plain Text
Duration : 29 min 53 s
Bit rate : 55 b/s
Frame rate : 0.246 FPS
Count of elements : 441
Stream size : 12.1 KiB (0%)
Title : Traditional
Language : Chinese
Default : No
Forced : No




1 个附件 售价 大小 下载 时间

Rap.Sht.S02.1080p.Max.WEB-DL.DDP.5.1.Atmos.H.264-BlackTV[1LOU.ME].torrent 0 金币 5.22K 77 次 2月前

#1楼
发帖时间:2023-12-07 22:54:16   |   回复数:0
游客组