BILL36
超凡入圣№

[2023] [日本] [剧情] [HDTV/HDrip] 下克上棒球少年[第08集][中文字幕].Gekokujo.Kyuji.S01.2023.1080p.Hami.WEB-DL.H264.AAC-DDHDTV 2.

-->

完整标题:下克上棒球少年[第08集][中文字幕].Gekokujo.Kyuji.S01.2023.1080p.Hami.WEB-DL.H264.AAC-DDHDTV 2.55GB



◎标  题 下克上棒球少年
◎片  名 下剋上球児
◎年  代 2023
◎产  地 日本
◎类  别 剧情
◎语  言 日语
◎IMDb链接 https://www.imdb.com/title//
◎豆瓣评分 8.0/10 (342人评价)
◎豆瓣链接 https://movie.douban.com/subject/36514500/
◎导  演 冢原亚由子 Ayuko Tsukahara
      山室大辅 Daisuke Yamamuro
      滨野大辉 Daiki Hamano
◎编  剧 奥寺佐渡子 Satoko Okudera
◎演  员 铃木亮平 Ryohei Suzuki
      黑木华 Haru Kuroki
      井川遥 Haruka Igawa
      小日向文世 Fumiyo Kohinata
      生濑胜久 Katsuhisa Namase
      松平健 Ken Matsudaira
      小泉孝太郎 Kôtarô Koizumi
      明日海里奥 Asumi Rio
      山下美月 Mizuki Yamashita
      中泽元纪 Motoki Nakazawa
      兵头功海 Hyodo Katsumi
      伊藤明日阳 Asahi Ito
      小林虎之介 Toranosuke Kobayashi
      橘优辉
      菅生新树 Araki Sugou
      奥野壮 So Okuno
      福松凜 Rin Hukumatsu
      生田俊平 Shunpei Ikuta
      弦濑聪一
      铃木敦也 Atsuya Suzuki
      财津优太郎 Yutaro Zaitsu
      伊达小百合 Sayuri Date

◎简  介
    铃木饰演的主人公南云修司是在三重县立越山高中任教3年的社会课教师。虽然一直到大学都在打棒球,但因为受伤而隐退。大学中途退学后,他曾是一名体育教练,但由于无法放弃当教师的梦想,32岁时他再次进入大学,成为了一名教师。在度过教师生活的过程中,以当地大地主的孙子入学为契机,担任了即将废部的弱小棒球部的顾问,日常生活发生了翻天覆地的变化。

部分资源为软字幕,移动端推荐播放器:MxPlayer,nPlayer,infuse ,其他播放器请自行尝试。

部分资源为软字幕,电脑端推荐播放器:PotPlayer,完美解码,KMPLAYER,其他播放器请自行尝试。

##### MediaInfo ######
General
Unique ID : 177746194422646522546679228778163712387 (0x85B8ABFD4F364D42ACD4305FC733B183)
Complete name : Gekokujo.Kyuji.S01E08.2023.1080p.Hami.WEB-DL.H264.AAC-DDHDTV.mkv
Duration : 45 min 52 s
Overall bit rate : 7 967 kb/s

Video
ID : 1
Format : AVC
Format/Info : Advanced Video Codec
Format profile : High@L4
Format settings : CABAC / 3 Ref Frames
Format settings, CABAC : Yes
Format settings, Reference frames : 3 frames
Format settings, GOP : M=1, N=30
Codec ID : V_MPEG4/ISO/AVC
Duration : 45 min 52 s
Bit rate : 7 872 kb/s
Width : 1 920 pixels
Height : 1 080 pixels
Display aspect ratio : 16:9
Frame rate mode : Constant
Frame rate : 29.970 (29970/1000) FPS
Color space : YUV
Chroma subsampling : 4:2:0
Bit depth : 8 bits
Scan type : Progressive
Bits/(Pixel*Frame) : 0.127
Stream size : 2.51 GiB (98%)
Writing library : x264 core 157 r2935 545de2f
Encoding settings : cabac=1 / ref=3 / deblock=1:0:0 / analyse=0x3:0x113 / me=hex / subme=7 / psy=1 / psy_rd=1.00:0.00 / mixed_ref=1 / me_range=16 / chroma_me=1 / trellis=1 / 8x8dct=1 / cqm=0 / deadzone=21,11 / fast_pskip=1 / chroma_qp_offset=-2 / threads=34 / lookahead_threads=5 / sliced_threads=0 / nr=0 / decimate=1 / interlaced=0 / bluray_compat=0 / constrained_intra=0 / bframes=0 / weightp=2 / keyint=30 / keyint_min=16 / scenecut=0 / intra_refresh=0 / rc_lookahead=30 / rc=abr / mbtree=1 / bitrate=7872 / ratetol=1.0 / qcomp=0.60 / qpmin=0 / qpmax=69 / qpstep=4 / vbv_maxrate=8000 / vbv_bufsize=7872 / nal_hrd=none / filler=0 / ip_ratio=1.40 / aq=1:1.00
Language : Japanese
Default : Yes
Forced : No

Audio
ID : 2
Format : AAC LC
Format/Info : Advanced Audio Codec Low Complexity
Codec ID : A_AAC-2
Duration : 45 min 52 s
Bit rate : 128 kb/s
Channel(s) : 2 channels
Channel layout : L R
Sampling rate : 48.0 kHz
Frame rate : 46.875 FPS (1024 SPF)
Compression mode : Lossy
Stream size : 42.1 MiB (2%)
Language : Japanese
Default : Yes
Forced : No




1 个附件 售价 大小 下载 时间

Gekokujo.Kyuji.S01.2023.1080p.Hami.WEB-DL.H264.AAC-DDHDTV[1LOU.ME].torrent 0 金币 9.12K 378 次 2月前

#1楼
发帖时间:2023-12-07 22:37:46   |   回复数:0
游客组