BILL36
超凡入圣№

[2023] [英国] [其它] [WEB-4K] 约翰·列侬谋杀案:审判疑云[全3集][简繁英字幕].2160p.Apple.TV/.WEB-DL.DDP.5.1.Atmos.H.265-BlackTV 16.

-->

完整标题:约翰·列侬谋杀案:审判疑云[全3集][简繁英字幕].2160p.Apple.TV/.WEB-DL.DDP.5.1.Atmos.H.265-BlackTV 16.68GB



◎标  题 约翰·列侬谋杀案:审判疑云
◎译  名 约翰·列侬:未经审判的谋杀
◎片  名 John Lennon: Murder Without A Trial
◎年  代 2023
◎产  地 英国
◎类  别 纪录片
◎语  言 英语
◎IMDb链接 https://www.imdb.com/title/tt29629260/
◎豆瓣链接 https://movie.douban.com/subject/36620856/
◎导  演 Nick Holt Nick Holt
◎演  员 基弗·萨瑟兰 Kiefer Sutherland
      约翰·列侬 John Lennon

◎简  介
    For the first time, key figures from John Lennon’s life and death — including friends, doctors and investigators — share personal memories and reveal what happened on the night of his killing.

部分资源为软字幕,移动端推荐播放器:MxPlayer,nPlayer,infuse ,其他播放器请自行尝试。

部分资源为软字幕,电脑端推荐播放器:PotPlayer,完美解码,KMPLAYER,其他播放器请自行尝试。

##### MediaInfo ######
General
Unique ID : 184004693633406361068859093081439948969 (0x8A6E03D2F3F943E955709298C06950A9)
Complete name : John.Lennon.Murder.Without.A.Trial.S01E01.The.Last.Day.2160p.Apple.TV+.WEB-DL.DDP.5.1.Atmos.H.265-BlackTV.mkv
Duration : 37 min 46 s
Overall bit rate : 20.7 Mb/s

Video
ID : 1
Format : HEVC
Format/Info : High Efficiency Video Coding
Format profile : Main 10@L5@High
Codec ID : V_MPEGH/ISO/HEVC
Duration : 37 min 46 s
Bit rate : 19.9 Mb/s
Width : 3 840 pixels
Height : 2 160 pixels
Display aspect ratio : 16:9
Frame rate mode : Constant
Frame rate : 23.976 (23976/1000) FPS
Color space : YUV
Chroma subsampling : 4:2:0
Bit depth : 10 bits
Bits/(Pixel*Frame) : 0.100
Stream size : 5.25 GiB (96%)
Language : English
Default : Yes
Forced : No
Color range : Limited
Color primaries : BT.709
Transfer characteristics : BT.709
Matrix coefficients : BT.709

Audio
ID : 2
Format : E-AC-3 JOC
Format/Info : Enhanced AC-3 with Joint Object Coding
Commercial name : Dolby Digital Plus with Dolby Atmos
Codec ID : A_EAC3
Duration : 37 min 46 s
Bit rate mode : Constant
Bit rate : 768 kb/s
Channel(s) : 6 channels
Channel layout : L R C LFE Ls Rs
Sampling rate : 48.0 kHz
Frame rate : 31.250 FPS (1536 SPF)
Compression mode : Lossy
Stream size : 208 MiB (4%)
Language : English
Service kind : Complete Main
Default : Yes
Forced : No
Complexity index : 16
Number of dynamic objects : 15
Bed channel count : 1 channel
Bed channel configuration : LFE

Text #1
ID : 3
Format : UTF-8
Codec ID : S_TEXT/UTF8
Codec ID/Info : UTF-8 Plain Text
Duration : 36 min 32 s
Bit rate : 94 b/s
Frame rate : 0.271 FPS
Count of elements : 595
Stream size : 25.2 KiB (0%)
Language : English
Default : No
Forced : No

Text #2
ID : 4
Format : UTF-8
Codec ID : S_TEXT/UTF8
Codec ID/Info : UTF-8 Plain Text
Duration : 37 min 27 s
Bit rate : 86 b/s
Frame rate : 0.284 FPS
Count of elements : 639
Stream size : 23.7 KiB (0%)
Title : Simplified
Language : Chinese
Default : No
Forced : No

Text #3
ID : 5
Format : UTF-8
Codec ID : S_TEXT/UTF8
Codec ID/Info : UTF-8 Plain Text
Duration : 37 min 27 s
Bit rate : 85 b/s
Frame rate : 0.285 FPS
Count of elements : 640
Stream size : 23.4 KiB (0%)
Title : Traditional
Language : Chinese
Default : No
Forced : No

Text #4
ID : 6
Format : UTF-8
Codec ID : S_TEXT/UTF8
Codec ID/Info : UTF-8 Plain Text
Duration : 37 min 27 s
Bit rate : 74 b/s
Frame rate : 0.285 FPS
Count of elements : 640
Stream size : 20.4 KiB (0%)
Title : Traditional
Language : Chinese
Default : No
Forced : No

Text #5
ID : 7
Format : UTF-8
Codec ID : S_TEXT/UTF8
Codec ID/Info : UTF-8 Plain Text
Duration : 37 min 27 s
Bit rate : 142 b/s
Frame rate : 0.275 FPS
Count of elements : 618
Stream size : 39.0 KiB (0%)
Language : Arabic
Default : No
Forced : No

Text #6
ID : 8
Format : UTF-8
Codec ID : S_TEXT/UTF8
Codec ID/Info : UTF-8 Plain Text
Duration : 37 min 27 s
Bit rate : 124 b/s
Frame rate : 0.216 FPS
Count of elements : 486
Stream size : 34.0 KiB (0%)
Language : Bulgarian
Default : No
Forced : No

Text #7
ID : 9
Format : UTF-8
Codec ID : S_TEXT/UTF8
Codec ID/Info : UTF-8 Plain Text
Duration : 37 min 27 s
Bit rate : 82 b/s
Frame rate : 0.236 FPS
Count of elements : 530
Stream size : 22.6 KiB (0%)
Language : Czech
Default : No
Forced : No

Text #8
ID : 10
Format : UTF-8
Codec ID : S_TEXT/UTF8
Codec ID/Info : UTF-8 Plain Text
Duration : 37 min 27 s
Bit rate : 91 b/s
Frame rate : 0.282 FPS
Count of elements : 634
Stream size : 25.0 KiB (0%)
Language : Danish
Default : No
Forced : No

Text #9
ID : 11
Format : UTF-8
Codec ID : S_TEXT/UTF8
Codec ID/Info : UTF-8 Plain Text
Duration : 37 min 27 s
Bit rate : 85 b/s
Frame rate : 0.250 FPS
Count of elements : 562
Stream size : 23.3 KiB (0%)
Language : German
Default : No
Forced : No

Text #10
ID : 12
Format : UTF-8
Codec ID : S_TEXT/UTF8
Codec ID/Info : UTF-8 Plain Text
Duration : 37 min 27 s
Bit rate : 153 b/s
Frame rate : 0.265 FPS
Count of elements : 595
Stream size : 42.1 KiB (0%)
Language : Greek
Default : No
Forced : No

Text #11
ID : 13
Format : UTF-8
Codec ID : S_TEXT/UTF8
Codec ID/Info : UTF-8 Plain Text
Duration : 37 min 27 s
Bit rate : 80 b/s
Frame rate : 0.252 FPS
Count of elements : 566
Stream size : 22.2 KiB (0%)
Title : Latin America
Language : Spanish
Default : No
Forced : No

Text #12
ID : 14
Format : UTF-8
Codec ID : S_TEXT/UTF8
Codec ID/Info : UTF-8 Plain Text
Duration : 37 min 27 s
Bit rate : 82 b/s
Frame rate : 0.246 FPS
Count of elements : 553
Stream size : 22.7 KiB (0%)
Language : Spanish
Default : No
Forced : No

Text #13
ID : 15
Format : UTF-8
Codec ID : S_TEXT/UTF8
Codec ID/Info : UTF-8 Plain Text
Duration : 37 min 27 s
Bit rate : 84 b/s
Frame rate : 0.266 FPS
Count of elements : 597
Stream size : 23.2 KiB (0%)
Language : Estonian
Default : No
Forced : No

Text #14
ID : 16
Format : UTF-8
Codec ID : S_TEXT/UTF8
Codec ID/Info : UTF-8 Plain Text
Duration : 37 min 27 s
Bit rate : 84 b/s
Frame rate : 0.274 FPS
Count of elements : 616
Stream size : 23.1 KiB (0%)
Language : Finnish
Default : No
Forced : No

Text #15
ID : 17
Format : UTF-8
Codec ID : S_TEXT/UTF8
Codec ID/Info : UTF-8 Plain Text
Duration : 37 min 27 s
Bit rate : 82 b/s
Frame rate : 0.274 FPS
Count of elements : 616
Stream size : 22.7 KiB (0%)
Title : Canada
Language : French
Default : No
Forced : No

Text #16
ID : 18
Format : UTF-8
Codec ID : S_TEXT/UTF8
Codec ID/Info : UTF-8 Plain Text
Duration : 37 min 27 s
Bit rate : 82 b/s
Frame rate : 0.274 FPS
Count of elements : 616
Stream size : 22.7 KiB (0%)
Language : French
Default : No
Forced : No

Text #17
ID : 19
Format : UTF-8
Codec ID : S_TEXT/UTF8
Codec ID/Info : UTF-8 Plain Text
Duration : 37 min 27 s
Bit rate : 122 b/s
Frame rate : 0.284 FPS
Count of elements : 639
Stream size : 33.7 KiB (0%)
Language : Hebrew
Default : No
Forced : No

Text #18
ID : 20
Format : UTF-8
Codec ID : S_TEXT/UTF8
Codec ID/Info : UTF-8 Plain Text
Duration : 37 min 27 s
Bit rate : 251 b/s
Frame rate : 0.285 FPS
Count of elements : 640
Stream size : 69.0 KiB (0%)
Language : Hindi
Default : No
Forced : No

Text #19
ID : 21
Format : UTF-8
Codec ID : S_TEXT/UTF8
Codec ID/Info : UTF-8 Plain Text
Duration : 37 min 27 s
Bit rate : 95 b/s
Frame rate : 0.283 FPS
Count of elements : 636
Stream size : 26.2 KiB (0%)
Language : Hungarian
Default : No
Forced : No

Text #20
ID : 22
Format : UTF-8
Codec ID : S_TEXT/UTF8
Codec ID/Info : UTF-8 Plain Text
Duration : 37 min 27 s
Bit rate : 89 b/s
Frame rate : 0.283 FPS
Count of elements : 635
Stream size : 24.5 KiB (0%)
Language : Indonesian
Default : No
Forced : No

Text #21
ID : 23
Format : UTF-8
Codec ID : S_TEXT/UTF8
Codec ID/Info : UTF-8 Plain Text
Duration : 37 min 27 s
Bit rate : 86 b/s
Frame rate : 0.270 FPS
Count of elements : 607
Stream size : 23.7 KiB (0%)
Language : Italian
Default : No
Forced : No

Text #22
ID : 24
Format : UTF-8
Codec ID : S_TEXT/UTF8
Codec ID/Info : UTF-8 Plain Text
Duration : 37 min 27 s
Bit rate : 85 b/s
Frame rate : 0.263 FPS
Count of elements : 592
Stream size : 23.3 KiB (0%)
Language : Japanese
Default : No
Forced : No

Text #23
ID : 25
Format : UTF-8
Codec ID : S_TEXT/UTF8
Codec ID/Info : UTF-8 Plain Text
Duration : 37 min 27 s
Bit rate : 96 b/s
Frame rate : 0.285 FPS
Count of elements : 640
Stream size : 26.4 KiB (0%)
Language : Korean
Default : No
Forced : No

Text #24
ID : 26
Format : UTF-8
Codec ID : S_TEXT/UTF8
Codec ID/Info : UTF-8 Plain Text
Duration : 37 min 27 s
Bit rate : 90 b/s
Frame rate : 0.284 FPS
Count of elements : 638
Stream size : 24.9 KiB (0%)
Language : Lithuanian
Default : No
Forced : No

Text #25
ID : 27
Format : UTF-8
Codec ID : S_TEXT/UTF8
Codec ID/Info : UTF-8 Plain Text
Duration : 37 min 27 s
Bit rate : 88 b/s
Frame rate : 0.251 FPS
Count of elements : 564
Stream size : 24.2 KiB (0%)
Language : Latvian
Default : No
Forced : No

Text #26
ID : 28
Format : UTF-8
Codec ID : S_TEXT/UTF8
Codec ID/Info : UTF-8 Plain Text
Duration : 37 min 27 s
Bit rate : 86 b/s
Frame rate : 0.283 FPS
Count of elements : 636
Stream size : 23.7 KiB (0%)
Language : Malay
Default : No
Forced : No

Text #27
ID : 29
Format : UTF-8
Codec ID : S_TEXT/UTF8
Codec ID/Info : UTF-8 Plain Text
Duration : 37 min 27 s
Bit rate : 77 b/s
Frame rate : 0.205 FPS
Count of elements : 460
Stream size : 21.2 KiB (0%)
Language : Dutch
Default : No
Forced : No

Text #28
ID : 30
Format : UTF-8
Codec ID : S_TEXT/UTF8
Codec ID/Info : UTF-8 Plain Text
Duration : 37 min 27 s
Bit rate : 76 b/s
Frame rate : 0.203 FPS
Count of elements : 457
Stream size : 20.9 KiB (0%)
Language : Norwegian
Default : No
Forced : No

Text #29
ID : 31
Format : UTF-8
Codec ID : S_TEXT/UTF8
Codec ID/Info : UTF-8 Plain Text
Duration : 37 min 27 s
Bit rate : 81 b/s
Frame rate : 0.281 FPS
Count of elements : 632
Stream size : 22.5 KiB (0%)
Language : Polish
Default : No
Forced : No

Text #30
ID : 32
Format : UTF-8
Codec ID : S_TEXT/UTF8
Codec ID/Info : UTF-8 Plain Text
Duration : 37 min 27 s
Bit rate : 82 b/s
Frame rate : 0.266 FPS
Count of elements : 598
Stream size : 22.7 KiB (0%)
Language : Portuguese
Default : No
Forced : No

Text #31
ID : 33
Format : UTF-8
Codec ID : S_TEXT/UTF8
Codec ID/Info : UTF-8 Plain Text
Duration : 37 min 27 s
Bit rate : 77 b/s
Frame rate : 0.263 FPS
Count of elements : 592
Stream size : 21.4 KiB (0%)
Title : Brazil
Language : Portuguese
Default : No
Forced : No

Text #32
ID : 34
Format : UTF-8
Codec ID : S_TEXT/UTF8
Codec ID/Info : UTF-8 Plain Text
Duration : 37 min 27 s
Bit rate : 135 b/s
Frame rate : 0.253 FPS
Count of elements : 569
Stream size : 37.1 KiB (0%)
Language : Russian
Default : No
Forced : No

Text #33
ID : 35
Format : UTF-8
Codec ID : S_TEXT/UTF8
Codec ID/Info : UTF-8 Plain Text
Duration : 37 min 27 s
Bit rate : 82 b/s
Frame rate : 0.273 FPS
Count of elements : 613
Stream size : 22.8 KiB (0%)
Language : Slovak
Default : No
Forced : No

Text #34
ID : 36
Format : UTF-8
Codec ID : S_TEXT/UTF8
Codec ID/Info : UTF-8 Plain Text
Duration : 37 min 27 s
Bit rate : 70 b/s
Frame rate : 0.214 FPS
Count of elements : 481
Stream size : 19.4 KiB (0%)
Language : Slovenian
Default : No
Forced : No

Text #35
ID : 37
Format : UTF-8
Codec ID : S_TEXT/UTF8
Codec ID/Info : UTF-8 Plain Text
Duration : 37 min 27 s
Bit rate : 86 b/s
Frame rate : 0.281 FPS
Count of elements : 632
Stream size : 23.7 KiB (0%)
Language : Swedish
Default : No
Forced : No

Text #36
ID : 38
Format : UTF-8
Codec ID : S_TEXT/UTF8
Codec ID/Info : UTF-8 Plain Text
Duration : 37 min 27 s
Bit rate : 322 b/s
Frame rate : 0.284 FPS
Count of elements : 639
Stream size : 88.4 KiB (0%)
Language : Tamil
Default : No
Forced : No

Text #37
ID : 39
Format : UTF-8
Codec ID : S_TEXT/UTF8
Codec ID/Info : UTF-8 Plain Text
Duration : 37 min 27 s
Bit rate : 276 b/s
Frame rate : 0.284 FPS
Count of elements : 639
Stream size : 75.9 KiB (0%)
Language : Telugu
Default : No
Forced : No

Text #38
ID : 40
Format : UTF-8
Codec ID : S_TEXT/UTF8
Codec ID/Info : UTF-8 Plain Text
Duration : 37 min 27 s
Bit rate : 232 b/s
Frame rate : 0.284 FPS
Count of elements : 639
Stream size : 63.7 KiB (0%)
Language : Thai
Default : No
Forced : No

Text #39
ID : 41
Format : UTF-8
Codec ID : S_TEXT/UTF8
Codec ID/Info : UTF-8 Plain Text
Duration : 37 min 27 s
Bit rate : 87 b/s
Frame rate : 0.278 FPS
Count of elements : 625
Stream size : 24.0 KiB (0%)
Language : Turkish
Default : No
Forced : No

Text #40
ID : 42
Format : UTF-8
Codec ID : S_TEXT/UTF8
Codec ID/Info : UTF-8 Plain Text
Duration : 37 min 27 s
Bit rate : 141 b/s
Frame rate : 0.283 FPS
Count of elements : 635
Stream size : 38.7 KiB (0%)
Language : Ukrainian
Default : No
Forced : No

Text #41
ID : 43
Format : UTF-8
Codec ID : S_TEXT/UTF8
Codec ID/Info : UTF-8 Plain Text
Duration : 37 min 27 s
Bit rate : 116 b/s
Frame rate : 0.284 FPS
Count of elements : 638
Stream size : 31.9 KiB (0%)
Language : Vietnamese
Default : No
Forced : No




1 个附件 售价 大小 下载 时间

2160p.Apple.TV+.WEB-DL.DDP.5.1.Atmos.H.265-BlackTV[1LOU.ME].torrent 0 金币 44.77K 119 次 2月前

#1楼
发帖时间:2023-12-06 21:59:35   |   回复数:0
游客组