BILL36
超凡入圣№

[2023] [韩国] [爱情] [WEB-1080P] 跟我说爱我[第03集][中文字幕].Tell.Me.That.You.Love.Me.Series.2023.S01.1080p.DSNP.WEB-DL.AAC

-->

完整标题:跟我说爱我[第03集][中文字幕].Tell.Me.That.You.Love.Me.Series.2023.S01.1080p.DSNP.WEB-DL.AAC.2.0.H.264-BlackTV 2.32GB



◎标  题 跟我说爱我
◎译  名 跟我说爱我 韩国版
◎片  名 사랑한다고 말해줘
◎年  代 2023
◎产  地 韩国
◎类  别 爱情
◎语  言 韩语
◎IMDb链接 https://www.imdb.com/title//
◎豆瓣链接 https://movie.douban.com/subject/36107651/
◎导  演 金允珍 Kim Yoon-Jin
◎编  剧 金敏贞 Kim Min-Jung
      金敏贞 Min-jung Kim
◎演  员 郑雨盛 Woo-sung Jung
      申铉彬 Hyun-bin Shin
      曹民国 Jo Min Kook
      韩贤俊 Hyun-Jun Han

◎简  介
    “就算语言不同,任何人都可以相爱。”   翻拍自1995年的经典同名日剧,讲述习惯于用画来表达感情的聋哑人车振宇(郑雨盛 饰)和用声音表达心意的郑暮恩(申贤彬 饰)命运般的爱情故事。

部分资源为软字幕,移动端推荐播放器:MxPlayer,nPlayer,infuse ,其他播放器请自行尝试。

部分资源为软字幕,电脑端推荐播放器:PotPlayer,完美解码,KMPLAYER,其他播放器请自行尝试。

##### MediaInfo ######
General
Unique ID : 258337067876073119583375096640573530836 (0xC259E8D37843404E457D214A7BEFE2D4)
Complete name : Tell.Me.That.You.Love.Me.Series.2023.S01E03.Tears.1080p.DSNP.WEB-DL.AAC.2.0.H.264-BlackTV.mkv
Duration : 1 h 1 min
Overall bit rate mode : Variable
Overall bit rate : 5 423 kb/s

Video
ID : 1
Format : AVC
Format/Info : Advanced Video Codec
Format profile : High@L4
Format settings : CABAC / 4 Ref Frames
Format settings, CABAC : Yes
Format settings, Reference frames : 4 frames
Codec ID : V_MPEG4/ISO/AVC
Duration : 1 h 1 min
Bit rate mode : Variable
Bit rate : 5 295 kb/s
Maximum bit rate : 12.7 Mb/s
Width : 1 920 pixels
Height : 1 080 pixels
Display aspect ratio : 16:9
Frame rate mode : Constant
Frame rate : 23.976 (24000/1001) FPS
Color space : YUV
Chroma subsampling : 4:2:0
Bit depth : 8 bits
Scan type : Progressive
Bits/(Pixel*Frame) : 0.106
Stream size : 2.26 GiB (98%)
Language : Korean
Default : Yes
Forced : No
Color range : Limited
Color primaries : BT.709
Transfer characteristics : BT.709
Matrix coefficients : BT.709

Audio
ID : 2
Format : AAC LC
Format/Info : Advanced Audio Codec Low Complexity
Codec ID : A_AAC-2
Duration : 1 h 1 min
Bit rate : 125 kb/s
Channel(s) : 2 channels
Channel layout : L R
Sampling rate : 48.0 kHz
Frame rate : 46.875 FPS (1024 SPF)
Compression mode : Lossy
Stream size : 54.9 MiB (2%)
Language : Korean
Default : Yes
Forced : No

Text #1
ID : 3
Format : UTF-8
Codec ID : S_TEXT/UTF8
Codec ID/Info : UTF-8 Plain Text
Duration : 27 min 25 s
Bit rate : 2 b/s
Frame rate : 0.011 FPS
Count of elements : 18
Stream size : 566 Bytes (0%)
Title : Forced
Language : Korean
Default : Yes
Forced : Yes

Text #2
ID : 4
Format : UTF-8
Codec ID : S_TEXT/UTF8
Codec ID/Info : UTF-8 Plain Text
Duration : 1 h 1 min
Bit rate : 62 b/s
Frame rate : 0.220 FPS
Count of elements : 807
Stream size : 27.9 KiB (0%)
Title : SDH
Language : Korean
Default : No
Forced : No

Text #3
ID : 5
Format : UTF-8
Codec ID : S_TEXT/UTF8
Codec ID/Info : UTF-8 Plain Text
Duration : 1 h 0 min
Bit rate : 37 b/s
Frame rate : 0.183 FPS
Count of elements : 665
Stream size : 16.6 KiB (0%)
Title : Traditional
Language : Chinese
Default : No
Forced : No

Text #4
ID : 6
Format : UTF-8
Codec ID : S_TEXT/UTF8
Codec ID/Info : UTF-8 Plain Text
Duration : 1 h 1 min
Bit rate : 44 b/s
Frame rate : 0.202 FPS
Count of elements : 739
Stream size : 19.7 KiB (0%)
Title : SDH
Language : English
Default : No
Forced : No

Text #5
ID : 7
Format : UTF-8
Codec ID : S_TEXT/UTF8
Codec ID/Info : UTF-8 Plain Text
Duration : 1 h 0 min
Bit rate : 40 b/s
Frame rate : 0.177 FPS
Count of elements : 643
Stream size : 18.0 KiB (0%)
Language : Japanese
Default : No
Forced : No

Menu
00:00:04.004 : en:Intro
00:00:49.007 : en:Scene 1
00:10:25.209 : en:Scene 2
00:19:32.756 : en:Scene 3
00:30:33.625 : en:Scene 4
00:39:36.627 : en:Scene 5
00:54:32.439 : en:Scene 6
01:00:09.693 : en:Credits


点击图片可查看大图

软字幕无法在截图上展现,HDR版本/杜比视界版本截图会出现颜色异常,请使用支持的设备播放!



1 个附件 售价 大小 下载 时间

Tell.Me.That.You.Love.Me.Series.2023.S01.1080p.DSNP.WEB-DL.AAC.2.0.H.264-Bl..[1LOU.ME].torrent 0 金币 8.57K 469 次 2月前

#1楼
发帖时间:2023-12-05 13:21:15   |   回复数:0
游客组