travismk
一代宗师

[2022] [其它] [剧情] [WEB-1080P] 一家之主 Reclaim.2022.CHINESE.1080p.NF.WEBRip.DDP5.1.x264-SMURF 6.71GB

-->

帖子完整标题:一家之主 Reclaim.2022.CHINESE.1080p.NF.WEBRip.DDP5.1.x264-SMURF 6.71GB



◎标  题 一家之主
◎译  名 Reclaim
◎年  代 2022
◎产  地 中国台湾
◎类  别 剧情 / 家庭
◎语  言 汉语普通话
◎上映日期 2022-05-06(中国台湾)
◎IMDb评分 5.5/10 (10人评价)
◎IMDb链接 https://www.imdb.com/title/tt13298522/
◎豆瓣链接 https://movie.douban.com/subject/30129973/
◎片  长 124分钟
◎导  演 王希捷 Cj Wang
◎编  剧 王希捷 Cj Wang
◎演  员 鲍起静 Hee Ching Paw
      寇世勋 Johnny Kou Hsi-Shun
      柯佳嬿 Alice Ko
      陆弈静 Yi-Ching Lu
      李淳 Mason Lee
      于家安
      黎允文 Henry Lai
      黄文英 Wen-Ying Huang

◎简  介
  节奏繁忙的台北一角,住着临届退休之年的女子叶兰心(鲍起静 饰)。家庭外,她是优秀的职业妇女,经营着一间儿童美术教室;回到家,她是标准好女人,完美的妻子、母亲、媳妇和女儿。她如一只陀螺般里外转着,总希望自己能面面俱到,解决身边所有人交付予她的任务。
刚退休的丈夫罗大伟(寇 世勋 饰)正以古董收藏逐步占领家中各处空间;;风烛残年的老母亲孙勤方(于家安 饰)独居养老院,记忆与意识逐渐模糊,总是提醒女儿接她回家;小女儿罗家宁(柯佳嬿 饰)因婚姻与工作都岌岌可危突然归来,家中转眼成为搁置家当的避难所;远在国外的儿子罗家宇,对于举家迁回台湾工作与否举棋不定,他虽是罗家荣誉象徵,却始终缺席。兰心的每个家人都有自己需求:家中的空间主权不断被占据,她也在不断失去自己渴望的空间同时,感觉自己是个失职的母亲、女儿与妻子,于是,她开始幻想借由买房安顿全家大小。
一日,兰心看...

Video
ID : 1
Format : AVC
Format/Info : Advanced Video Codec
Format profile : [email protected]
Format settings : CABAC / 4 Ref Frames
Format settings, CABAC : Yes
Format settings, Reference frames : 4 frames
Codec ID : V_MPEG4/ISO/AVC
Duration : 2 h 3 min
Bit rate mode : Variable
Bit rate : 6 513 kb/s
Maximum bit rate : 20.0 Mb/s
Width : 1 920 pixels
Height : 1 080 pixels
Display aspect ratio : 16:9
Frame rate mode : Constant
Frame rate : 24.000 FPS
Color space : YUV
Chroma subsampling : 4:2:0
Bit depth : 8 bits
Scan type : Progressive
Bits/(Pixel*Frame) : 0.131
Stream size : 5.60 GiB (84%)
Writing library : x264 core 148 r2727 7d026e8
Encoding settings : cabac=1 / ref=4 / deblock=1:0:0 / analyse=0x3:0x111 / me=umh / subme=10 / psy=1 / psy_rd=1.00:0.00 / mixed_ref=1 / me_range=120 / chroma_me=1 / trellis=2 / 8x8dct=1 / cqm=0 / deadzone=21,11 / fast_pskip=1 / chroma_qp_offset=-2 / threads=8 / lookahead_threads=2 / sliced_threads=0 / nr=0 / decimate=1 / interlaced=0 / bluray_compat=0 / stitchable=1 / constrained_intra=0 / bframes=16 / b_pyramid=2 / b_adapt=2 / b_bias=0 / direct=3 / weightb=1 / open_gop=0 / weightp=2 / keyint=240 / keyint_min=121 / scenecut=0 / intra_refresh=0 / rc_lookahead=240 / rc=crf / mbtree=1 / crf=16.0 / qcomp=0.50 / qpmin=6 / qpmax=51 / qpstep=4 / vbv_maxrate=20000 / vbv_bufsize=25000 / crf_max=0.0 / nal_hrd=vbr / filler=0 / ip_ratio=1.40 / aq=1:0.80
Language : Chinese
Default : Yes
Forced : No

Audio #1
ID : 2
Format : E-AC-3
Format/Info : Enhanced AC-3
Commercial name : Dolby Digital Plus
Codec ID : A_EAC3
Duration : 2 h 3 min
Bit rate mode : Constant
Bit rate : 640 kb/s
Channel(s) : 6 channels
Channel layout : L R C LFE Ls Rs
Sampling rate : 48.0 kHz
Frame rate : 31.250 FPS (1536 SPF)
Compression mode : Lossy
Stream size : 564 MiB (8%)
Title : Taiwan
Language : Chinese
Service kind : Complete Main
Default : Yes
Forced : No

Audio #2
ID : 3
Format : E-AC-3
Format/Info : Enhanced AC-3
Commercial name : Dolby Digital Plus
Codec ID : A_EAC3
Duration : 2 h 3 min
Bit rate mode : Constant
Bit rate : 640 kb/s
Channel(s) : 6 channels
Channel layout : L R C LFE Ls Rs
Sampling rate : 48.0 kHz
Frame rate : 31.250 FPS (1536 SPF)
Compression mode : Lossy
Stream size : 564 MiB (8%)
Language : English
Service kind : Complete Main
Default : No
Forced : No

Text #1
ID : 4
Format : UTF-8
Codec ID : S_TEXT/UTF8
Codec ID/Info : UTF-8 Plain Text
Duration : 2 h 2 min
Bit rate : 51 b/s
Frame rate : 0.220 FPS
Count of elements : 1615
Stream size : 45.8 KiB (0%)
Title : Traditional
Language : Chinese
Default : No
Forced : No

Text #2
ID : 5
Format : UTF-8
Codec ID : S_TEXT/UTF8
Codec ID/Info : UTF-8 Plain Text
Duration : 2 h 2 min
Bit rate : 91 b/s
Frame rate : 0.172 FPS
Count of elements : 1265
Stream size : 82.1 KiB (0%)
Language : Arabic
Default : No
Forced : No

Text #3
ID : 6
Format : UTF-8
Codec ID : S_TEXT/UTF8
Codec ID/Info : UTF-8 Plain Text
Duration : 2 h 2 min
Bit rate : 57 b/s
Frame rate : 0.172 FPS
Count of elements : 1265
Stream size : 51.7 KiB (0%)
Language : German
Default : No
Forced : No

Text #4
ID : 7
Format : UTF-8
Codec ID : S_TEXT/UTF8
Codec ID/Info : UTF-8 Plain Text
Duration : 2 h 2 min
Bit rate : 58 b/s
Frame rate : 0.184 FPS
Count of elements : 1349
Stream size : 52.8 KiB (0%)
Language : English
Default : No
Forced : No

Text #5
ID : 8
Format : UTF-8
Codec ID : S_TEXT/UTF8
Codec ID/Info : UTF-8 Plain Text
Duration : 2 h 2 min
Bit rate : 55 b/s
Frame rate : 0.168 FPS
Count of elements : 1235
Stream size : 49.6 KiB (0%)
Language : English
Default : No
Forced : No

Text #6
ID : 9
Format : UTF-8
Codec ID : S_TEXT/UTF8
Codec ID/Info : UTF-8 Plain Text
Duration : 2 h 2 min
Bit rate : 65 b/s
Frame rate : 0.206 FPS
Count of elements : 1513
Stream size : 58.7 KiB (0%)
Title : SDH
Language : English
Default : No
Forced : No

Text #7
ID : 10
Format : UTF-8
Codec ID : S_TEXT/UTF8
Codec ID/Info : UTF-8 Plain Text
Duration : 2 h 2 min
Bit rate : 55 b/s
Frame rate : 0.174 FPS
Count of elements : 1276
Stream size : 49.9 KiB (0%)
Language : Spanish
Default : No
Forced : No

Text #8
ID : 11
Format : UTF-8
Codec ID : S_TEXT/UTF8
Codec ID/Info : UTF-8 Plain Text
Duration : 2 h 2 min
Bit rate : 60 b/s
Frame rate : 0.174 FPS
Count of elements : 1277
Stream size : 54.5 KiB (0%)
Language : French
Default : No
Forced : No

Text #9
ID : 12
Format : UTF-8
Codec ID : S_TEXT/UTF8
Codec ID/Info : UTF-8 Plain Text
Duration : 2 h 2 min
Bit rate : 47 b/s
Frame rate : 0.172 FPS
Count of elements : 1263
Stream size : 42.5 KiB (0%)
Language : Indonesian
Default : No
Forced : No

Text #10
ID : 13
Format : UTF-8
Codec ID : S_TEXT/UTF8
Codec ID/Info : UTF-8 Plain Text
Duration : 2 h 2 min
Bit rate : 46 b/s
Frame rate : 0.145 FPS
Count of elements : 1071
Stream size : 41.9 KiB (0%)
Language : Japanese
Default : No
Forced : No

Text #11
ID : 14
Format : UTF-8
Codec ID : S_TEXT/UTF8
Codec ID/Info : UTF-8 Plain Text
Duration : 2 h 2 min
Bit rate : 61 b/s
Frame rate : 0.172 FPS
Count of elements : 1266
Stream size : 55.0 KiB (0%)
Language : Korean
Default : No
Forced : No

Text #12
ID : 15
Format : UTF-8
Codec ID : S_TEXT/UTF8
Codec ID/Info : UTF-8 Plain Text
Duration : 2 h 2 min
Bit rate : 55 b/s
Frame rate : 0.172 FPS
Count of elements : 1266
Stream size : 50.1 KiB (0%)
Language : Malay
Default : No
Forced : No

Text #13
ID : 16
Format : UTF-8
Codec ID : S_TEXT/UTF8
Codec ID/Info : UTF-8 Plain Text
Duration : 2 h 2 min
Bit rate : 54 b/s
Frame rate : 0.172 FPS
Count of elements : 1265
Stream size : 49.3 KiB (0%)
Title : Brazilian
Language : Portuguese
Default : No
Forced : No

Text #14
ID : 17
Format : UTF-8
Codec ID : S_TEXT/UTF8
Codec ID/Info : UTF-8 Plain Text
Duration : 2 h 2 min
Bit rate : 126 b/s
Frame rate : 0.172 FPS
Count of elements : 1268
Stream size : 114 KiB (0%)
Language : Thai
Default : No
Forced : No

Text #15
ID : 18
Format : UTF-8
Codec ID : S_TEXT/UTF8
Codec ID/Info : UTF-8 Plain Text
Duration : 2 h 2 min
Bit rate : 52 b/s
Frame rate : 0.172 FPS
Count of elements : 1262
Stream size : 46.9 KiB (0%)
Language : Turkish
Default : No
Forced : No

Text #16
ID : 19
Format : UTF-8
Codec ID : S_TEXT/UTF8
Codec ID/Info : UTF-8 Plain Text
Duration : 2 h 2 min
Bit rate : 67 b/s
Frame rate : 0.172 FPS
Count of elements : 1267
Stream size : 60.4 KiB (0%)
Language : Vietnamese
Default : No
Forced : No

Text #17
ID : 20
Format : UTF-8
Codec ID : S_TEXT/UTF8
Codec ID/Info : UTF-8 Plain Text
Duration : 2 h 2 min
Bit rate : 50 b/s
Frame rate : 0.238 FPS
Count of elements : 1752
Stream size : 45.2 KiB (0%)
Title : Simplified
Language : Chinese
Default : No
Forced : No





1 个附件 售价 大小 下载 时间

Reclaim.2022.CHINESE.1080p.NF.WEBRip.DDP5.1.x264-SMURF.torrent 0 金币 17.40K 588 次 3天前

#1楼
发帖时间:2022-08-06 17:02:22   |   回复数:1
show55667878
武林高手
感謝分享這電影
3天前 #2楼
游客组