原生系统
一派掌门

[2022] [大陆] [喜剧] [打包] [BT下载][东北插班生(剧版).第一季][全24集][国语中字][WEB/MP4][1080P][Vampire][无水印普码版]

-->


◎片  名 东北插班生 第一季 / 东北插班生剧版 第一季

◎译  名 Shift Students Form Northeast S01

◎年  代 2022

◎产  地 中国大陆

◎类  别 喜剧

◎语  言 汉语普通话

◎上映日期 2022-09-21(中国大陆)

◎豆瓣评分   7.7/10 From 11351 人评价

◎豆瓣链接 https://movie.douban.com/subject/35566358

◎集  数 24

◎片  长 35分钟

◎导  演 彭宇 Yu Peng (id:1329906)

◎编  剧 大广 Da Guang (id:1385564)

       常旭 Xu Chang (id:1471757)

◎演  员 史元庭 Yuanting Shi (id:1356619)

       黄曦彦 Tim Huang (id:1427186)

       崔真真 Zhenzhen Cui (id:1397791)

       苏祈安 Amy (id:1460814)

       刘尔金 Erh-chin Liu (id:1358321)

       高捷 Jack Kao (id:1276076)

       张国强 Kwok Keung Cheung (id:1274568)

       朱辉龙  (id:1460828)

       彭宇 Yu Peng (id:1329906)

       周子健 Zijian Zhou (id:1352518)

       薛罡 Gang Xue (id:1386868)

       严晶  (id:1460829)

       王栋  (id:1460830)

       王顺民  (id:1460831)

       魏勇  (id:1460833)

       高虎良  (id:1460832)

       蔡若茵  (id:1460834)

       谢宇扬 Yuyang Xie (id:1450746)


◎简  介


  东北某高中的差等生王虎,是一个典型的学习困难户,其调皮的性格、爱管闲事的作风,给他开洗浴中心的父亲王大虎惹了不少麻烦。望子成龙的王大虎在朋友的建议下,决定送儿子去远离家乡的澳门读书,试图让王虎彻底脱离舒适圈,并给王虎设下最后通牒,以后如果再惹麻烦,就停止对他的财务支持、断绝福字关系。王虎被逼无奈,只得独自来到了这个与东北有着巨大文化差异的澳门。 刚踏入新华人中校园的王虎仿佛来到了天堂,美丽的校园、友善的同学、可爱的南方妹纸,种种景象让王虎幸福的像花儿一样,可正当他春风得意的时候,却不得不与学校柔道社社长——号称最强男人的张文峰结下梁子。自尊心极强的张文峰放话,一定要好好收拾一下这个无礼的插班生。

      初到南方的王虎无论是饮食,还是沟通交流都非常不习惯,闹出很多啼笑皆非的误会,与此同时,张文峰也开始不断地找王虎的麻烦,可没想到这个东北老爷们却总有奇特的逻辑和独有的方式,将张文峰努力烘托的决斗气氛破坏,让张文峰屡遭尴尬。在这种南北地域文化差异带来的极致反差里,一波未平一波又起的热血竞技对抗由此点燃,青涩浪漫的校园爱情也悄然萌发……


General


Complete name               : 东北插班生.第一季.Shift.Students.Form.Northeast.S01.2022.EP01.1080P.WEB-DL.X265.AAC-Vampire.mp4

Format                      : MPEG-4

Format profile              : Base Media

Codec ID                    : isom (isom/iso2/mp41)

File size                   : 231 MiB

Duration                    : 32 min 3 s

Overall bit rate            : 1 007 kb/s

Movie name                  : 东北插班生.第一季.Shift.Students.Form.Northeast.S01

Album                       : 国产电视剧系列

Performer                   : Vampire制作分享作品

Genre                       : 中国大陆

Recorded date               : 2022

Cover                       : Yes

Comment                     : 警告:严禁将本人制作的任何作品用于商业性质活动,所有制作作品仅限于测试宽带之用,请于下载后24小时内删除。本人不承担任何法律后果!喜欢本作品请购买正版!!!


Video

ID                          : 1

Format                      : HEVC

Format/Info                 : High Efficiency Video Coding

Format profile              : [email protected]@Main

Codec ID                    : hev1

Codec ID/Info               : High Efficiency Video Coding

Duration                    : 32 min 3 s

Bit rate                    : 810 kb/s

Width                       : 1 920 pixels

Height                      : 1 080 pixels

Display aspect ratio        : 16:9

Frame rate mode             : Constant

Frame rate                  : 25.000 FPS

Color space                 : YUV

Chroma subsampling          : 4:2:0

Bit depth                   : 8 bits

Bits/(Pixel*Frame)          : 0.016

Stream size                 : 186 MiB (80%)

Codec configuration box     : hvcC


Audio

ID                          : 2

Format                      : AAC LC

Format/Info                 : Advanced Audio Codec Low Complexity

Codec ID                    : mp4a-40-2

Duration                    : 32 min 3 s

Bit rate mode               : Constant

Bit rate                    : 192 kb/s

Channel(s)                  : 2 channels

Channel layout              : L R

Sampling rate               : 44.1 kHz

Frame rate                  : 43.066 FPS (1024 SPF)

Compression mode            : Lossy

Stream size                 : 43.5 MiB (19%)

Default                     : Yes


本人发布的种子请使用专业BT下载工具:

UT,Bitcomet,qBittorrent,Xdown开启上传后再下载!!!

使用迅雷或网盘离线可能会没速度!!!


视频的网盘资源均修改了视频后缀(如mp4或mkv)修改为.PDF,用以混淆官方视听!
并且加密了文件名,设置了独有的解压密码,请使用WinRAR解压,使用好压或其他可能会出错!!

网盘版所有压缩包下载完毕后解压第一个包即可全部解压(有些可能有解压密码),解压后自行将后缀名“PDF”修改为“mp4或者mkv”后即可正常播放!!!


已完结剧集不再分集打包上传,整体打包后分卷,无法单独下载某一集,需要全部下载后一起解压,敬请知晓!!!
请各位下载的坛友先保存至自己的网盘,然后再进行下载!
不要直接在线观看或者解压,否则会很快被网盘官方发觉并和谐!!

网盘版资源一旦和谐,皆不会免费补档,请谨慎举报资源!!!


请下载完成的朋友自觉做种一段时间,小水管出种不易,且下且珍惜,谢谢!!!


#1楼
发帖时间:2022-10-04 21:58:52   |   回复数:0
游客组