呆呆狐狸
隐世仙人♂

[合 集] [美国] [犯罪] [打包] [BT下载][超感神探/超感警探/The Mentalist 第一至七季][全07季][英语中字][MKV][1080P][WEB+中文字幕]

-->

◎译  名 超感神探/心计(港)

◎片  名 The Mentalist

◎年  代 2008

◎国  家 美国

◎类  别 剧情/悬疑/犯罪

◎语  言 英语

◎上映日期 2008-09-23(美国)

◎IMDb评分  8.1/10 from 134,622 users

◎IMDb链接  http://www.imdb.com/title/tt1196946/

◎豆瓣评分 8.2/10 from 11,218 users

◎豆瓣链接 https://movie.douban.com/subject/3141950/

◎BT之家整理 http://www.btbtt.us/

◎片  长 43分钟

◎导  演 大卫·努特尔 David Nutter

◎主  演 西蒙·贝克 Simon Baker

      阿曼达·莱赫提 Amanda Righetti

      蒂姆·康 Tim Kang

      斯蒂文·卡普 Steven Culp

      罗宾·汤尼 Robin Tunney


◎简  介


  《超感警探》由获得金球奖提名的Simon Baker饰演Patrick Jane。在此片中Patrick Jane 是一名加利福尼亚调查局(CBI)的独立咨询师,凭借超然卓绝的观察能力破获了多个重大罪案,取得了辉煌战绩。但在局里,由于无所顾忌的我行我素和以前火热一时的明星灵媒经历,Jan可谓是声名狼籍,没什么好口碑。当然,他现在肯承认那些超能力都是他装出来的了。虽然Jane在破获一系列难度高、影响大的案件中所起的作用获得了同事们的高度评价,但是,严谨的高级警探Teresa Lisbon却一点也不想自己的团队里有他这个人,她对此毫不隐瞒而且身体力行,尽管如此,她还是不得不承认他确实对破案有帮助,可承认归承认,承认的同时,她仍然会毫不留情的对他的做秀,自恋和危险的缺乏约束进行狂轰乱炸。上司如此,下属也是一样,Lisbon的团队,警探Kimball Cho,,Wayne Rigsby和菜鸟Grace Van Pelt都认为Jane 是一个危害团队的无缰之马,但同时又都对他的魅力和办案的能力赞叹不已。


◎获奖情况


  第67届金球奖  (2010)

  电视类 剧情类剧集最佳男主角(提名) 西蒙·贝克


Video
ID : 1
Format : AVC
Format/Info : Advanced Video Codec
Format profile : High@L4
Format settings : CABAC / 4 Ref Frames
Format settings, CABAC : Yes
Format settings, ReFrames : 4 frames
Codec ID : V_MPEG4/ISO/AVC
Duration : 44 min 7 s
Bit rate mode : Variable
Bit rate : 14.2 Mb/s
Maximum bit rate : 15.0 Mb/s
Width : 1 920 pixels
Height : 1 080 pixels
Display aspect ratio : 16:9
Frame rate mode : Constant
Frame rate : 23.976 (24000/1001) FPS
Color space : YUV
Chroma subsampling : 4:2:0
Bit depth : 8 bits
Scan type : Progressive
Bits/(Pixel*Frame) : 0.285
Stream size : 4.37 GiB (96%)
Default : Yes
Forced : No
Color range : Limited
Color primaries : BT.709
Transfer characteristics : BT.709
Matrix coefficients : BT.709

Audio
ID : 2
Format : E-AC-3
Format/Info : Enhanced AC-3
Commercial name : Dolby Digital Plus
Codec ID : A_EAC3
Duration : 44 min 7 s
Bit rate mode : Constant
Bit rate : 640 kb/s
Channel(s) : 6 channels
Channel layout : L R C LFE Ls Rs
Sampling rate : 48.0 kHz
Frame rate : 31.250 FPS (1536 SPF)
Compression mode : Lossy
Stream size : 202 MiB (4%)
Language : English
Service kind : Complete Main
Default : Yes
Forced : No

Text
ID : 3
Format : UTF-8
Codec ID : S_TEXT/UTF8
Codec ID/Info : UTF-8 Plain Text
Duration : 43 min 34 s
Bit rate : 84 b/s
Count of elements : 913
Stream size : 26.9 KiB (0%)
Language : English
Default : No
Forced : No



#1楼
发帖时间:2018-11-29 21:26:12   |   回复数:6
Atari.Lau
江湖小虾

字幕


7 个附件 售价 大小 下载 时间

The.Mentalist.S01.1080p.BluRay.x265-RARBG.YY.zip 0 金币 825.39K 798 次 2月前

The.Mentalist.S02.1080p.WEBRip.x265-RARBG.YY.zip 0 金币 858.20K 686 次 2月前

The.Mentalist.S03.1080p.WEBRip.x265-RARBG.YY.zip 0 金币 921.92K 690 次 2月前

The.Mentalist.S04.1080p.WEBRip.x265-RARBG.YY.zip 0 金币 894.35K 630 次 2月前

The.Mentalist.S05.1080p.WEBRip.x265-RARBG.YY.zip 0 金币 813.30K 630 次 2月前

The.Mentalist.S06.1080p.WEBRip.x265-RARBG.YY.zip 0 金币 739.81K 648 次 2月前

The.Mentalist.S07.1080p.WEBRip.x265-RARBG.YY.zip 0 金币 441.23K 672 次 2月前

2018-11-29 #2楼
911degrees
隐世仙人♂
非常感谢,谢谢分享
2018-11-30 #3楼
lxfdxx
小有名气
带字幕就好了
2018-11-30 #4楼
awenlianzi
武林高手
这个清晰度就非常完美了。字幕需要调了!
2018-12-3 #5楼
wjw5566
武林高手
感谢分享
11月前 #6楼
david19710102
超级版主
1207
2月前 #7楼
游客组