BILL36
超凡入圣№

[2024] [英国] [剧情] [WEB-1080P] 无声的证言 第二十七季[第09-10集][无字片源].Silent.Witness.S27.1080p.iP.WEB-DL.AAC.2.0.HFR.H.264-

-->

完整标题:无声的证言 第二十七季[第09-10集][无字片源].Silent.Witness.S27.1080p.iP.WEB-DL.AAC.2.0.HFR.H.264-BlackTV 3.24GB



◎标  题 无声的证言 第二十七季
◎片  名 Silent Witness Season 27
◎年  代 2024
◎产  地 英国
◎类  别 剧情 / 悬疑 / 犯罪
◎语  言 英语
◎IMDb链接 https://www.imdb.com/title/tt29269813/
◎豆瓣链接 https://movie.douban.com/subject/36717152/
◎编  剧 杜迪·埃普顿 Dudi Appleton
◎演  员 大卫·凯夫斯 David Caves
      艾米莉娅·福克斯 Emilia Fox
      约翰·汉纳 John Hannah
      李奥·斯塔 Leo Staar

◎简  介
    Nikki and Jack investigate murder resembling notorious serial killer's work. Meeting original coroner Charles Beck, Nikki learns his wife was suspected a victim, but disbelieved when claiming he knows her body's location.

部分资源为软字幕,移动端推荐播放器:MxPlayer,nPlayer,infuse ,其他播放器请自行尝试。

部分资源为软字幕,电脑端推荐播放器:PotPlayer,完美解码,KMPLAYER,其他播放器请自行尝试。

##### MediaInfo ######
General
Unique ID : 174292134565449097095213420084273745942 (0x831F71B0BD3EE98082CBCD2CF8CE1016)
Complete name : Silent.Witness.S27E09.Kings.Cross.-.Part.1.1080p.iP.WEB-DL.AAC.2.0.HFR.H.264-BlackTV.mkv
Duration : 58 min 26 s
Overall bit rate mode : Variable
Overall bit rate : 4 215 kb/s

Video
ID : 1
Format : AVC
Format/Info : Advanced Video Codec
Format profile : [email protected]
Format settings : CABAC / 4 Ref Frames
Format settings, CABAC : Yes
Format settings, Reference frames : 4 frames
Codec ID : V_MPEG4/ISO/AVC
Duration : 58 min 26 s
Bit rate mode : Variable
Bit rate : 4 083 kb/s
Maximum bit rate : 12.0 Mb/s
Width : 1 920 pixels
Height : 1 080 pixels
Display aspect ratio : 16:9
Frame rate mode : Constant
Frame rate : 50.000 FPS
Color space : YUV
Chroma subsampling : 4:2:0
Bit depth : 8 bits
Scan type : Progressive
Bits/(Pixel*Frame) : 0.039
Stream size : 1.67 GiB (97%)
Language : English
Default : Yes
Forced : No
Color range : Limited
Color primaries : BT.709
Transfer characteristics : BT.709
Matrix coefficients : BT.709

Audio
ID : 2
Format : AAC LC
Format/Info : Advanced Audio Codec Low Complexity
Codec ID : A_AAC-2
Duration : 58 min 26 s
Bit rate : 128 kb/s
Channel(s) : 2 channels
Channel layout : L R
Sampling rate : 48.0 kHz
Frame rate : 46.875 FPS (1024 SPF)
Compression mode : Lossy
Stream size : 53.5 MiB (3%)
Language : English
Default : Yes
Forced : No

Text
ID : 3
Format : UTF-8
Codec ID : S_TEXT/UTF8
Codec ID/Info : UTF-8 Plain Text
Duration : 58 min 21 s
Bit rate : 71 b/s
Frame rate : 0.256 FPS
Count of elements : 895
Stream size : 30.8 KiB (0%)
Title : United Kingdom (SDH)
Language : English
Default : No
Forced : No


点击图片可查看大图

软字幕无法在截图上展现,HDR版本/杜比视界版本截图会出现颜色异常,请使用支持的设备播放!



1 个附件 售价 大小 下载 时间

Silent.Witness.S27.1080p.iP.WEB-DL.AAC.2.0.HFR.H.264-BlackTV[1LOU.ME].torrent 0 金币 10.96K 49 次 17天前

#1楼
发帖时间:2024-02-13 10:17:14   |   回复数:0
游客组