BILL36
超凡入圣№

[2024] [英国] [剧情] [WEB-1080P] 呼叫助产士 第十三季[第06集][无字片源].Call.the.Midwife.S13.1080p.iP.WEB-DL.AAC.2.0.HFR.H.264-Bl

-->

完整标题:呼叫助产士 第十三季[第06集][无字片源].Call.the.Midwife.S13.1080p.iP.WEB-DL.AAC.2.0.HFR.H.264-BlackTV 1.42GB



◎标  题 呼叫助产士 第十三季
◎片  名 Call The Midwife Season 13
◎年  代 2024
◎产  地 英国
◎类  别 剧情
◎语  言 英语
◎IMDb链接 https://www.imdb.com/title/tt26730358/
◎豆瓣链接 https://movie.douban.com/subject/35682118/

◎简  介
    With series ten due to launch on Sunday 18 April at 8pm and series 11 about to commence filming, Call The Midwife will now be on air until 2024. Series 12 and 13, commissioned by Piers Wenger, Director of BBC Drama and Charlotte Moore, Chief Content Officer, will consist of two 8x60’ series and two Christmas specials.

部分资源为软字幕,移动端推荐播放器:MxPlayer,nPlayer,infuse ,其他播放器请自行尝试。

部分资源为软字幕,电脑端推荐播放器:PotPlayer,完美解码,KMPLAYER,其他播放器请自行尝试。

##### MediaInfo ######
General
Unique ID : 49266223501409292611564123655150901930 (0x2510545AB0B61B475BE0184E2DD61AAA)
Complete name : Call.the.Midwife.S13E06.Episode.6.1080p.iP.WEB-DL.AAC.2.0.HFR.H.264-BlackTV.mkv
Duration : 58 min 57 s
Overall bit rate mode : Variable
Overall bit rate : 3 456 kb/s

Video
ID : 1
Format : AVC
Format/Info : Advanced Video Codec
Format profile : [email protected]
Format settings : CABAC / 4 Ref Frames
Format settings, CABAC : Yes
Format settings, Reference frames : 4 frames
Codec ID : V_MPEG4/ISO/AVC
Duration : 58 min 57 s
Bit rate mode : Variable
Bit rate : 3 324 kb/s
Maximum bit rate : 12.0 Mb/s
Width : 1 920 pixels
Height : 1 080 pixels
Display aspect ratio : 16:9
Frame rate mode : Constant
Frame rate : 50.000 FPS
Color space : YUV
Chroma subsampling : 4:2:0
Bit depth : 8 bits
Scan type : Progressive
Bits/(Pixel*Frame) : 0.032
Stream size : 1.37 GiB (96%)
Language : English
Default : Yes
Forced : No
Color range : Limited
Color primaries : BT.709
Transfer characteristics : BT.709
Matrix coefficients : BT.709

Audio
ID : 2
Format : AAC LC
Format/Info : Advanced Audio Codec Low Complexity
Codec ID : A_AAC-2
Duration : 58 min 57 s
Bit rate : 128 kb/s
Channel(s) : 2 channels
Channel layout : L R
Sampling rate : 48.0 kHz
Frame rate : 46.875 FPS (1024 SPF)
Compression mode : Lossy
Stream size : 54.0 MiB (4%)
Language : English
Default : Yes
Forced : No

Text
ID : 3
Format : UTF-8
Codec ID : S_TEXT/UTF8
Codec ID/Info : UTF-8 Plain Text
Duration : 57 min 58 s
Bit rate : 81 b/s
Frame rate : 0.299 FPS
Count of elements : 1039
Stream size : 34.8 KiB (0%)
Title : United Kingdom (SDH)
Language : English
Default : No
Forced : No


点击图片可查看大图

软字幕无法在截图上展现,HDR版本/杜比视界版本截图会出现颜色异常,请使用支持的设备播放!



1 个附件 售价 大小 下载 时间

Call.the.Midwife.S13.1080p.iP.WEB-DL.AAC.2.0.HFR.H.264-BlackTV[1LOU.ME].torrent 0 金币 6.30K 84 次 17天前

#1楼
发帖时间:2024-02-13 09:55:55   |   回复数:0
游客组