BILL36
超凡入圣№

[2024] [日本] [WEB-1080P] #居酒屋新干线2[第05集][无字片源].Bullet.Train.Bistro.2.S01.1080p.HuluJP.WEB-DL.AAC.2.0.H.264

-->

完整标题:#居酒屋新干线2[第05集][无字片源].Bullet.Train.Bistro.2.S01.1080p.HuluJP.WEB-DL.AAC.2.0.H.264-BlackTV 0.71GB



◎标  题 #居酒屋新干线2
◎片  名 #居酒屋新幹線2
◎年  代 2024
◎产  地 日本
◎语  言 日语
◎IMDb链接 https://www.imdb.com/title//
◎豆瓣链接 https://movie.douban.com/subject/36666508/
◎导  演 安村荣美 Emi Yasumura
◎编  剧 黑泽久子 Hisako Kurosawa
      横幕智裕 Tomohiro Yokomaku
      阿相久美子 Kumiko Aso
◎演  员 真岛秀和 Hidekazu Mashima

◎简  介
    本作は出張帰りに新幹線の車内でご当地グルメを堪能するのが密かな楽しみというサラリーマン・高宮進の物語。出張先で見つけた酒と肴、駅弁、さらにはスイーツまでを座席テーブルに広げる高宮の極上のひとときが描かれる。シーズン1の東北新幹線から舞台を移し、シーズン2では金沢~敦賀間の延伸が注目を集めている北陸新幹線と上越新幹線沿線の街を訪れる。

部分资源为软字幕,移动端推荐播放器:MxPlayer,nPlayer,infuse ,其他播放器请自行尝试。

部分资源为软字幕,电脑端推荐播放器:PotPlayer,完美解码,KMPLAYER,其他播放器请自行尝试。

##### MediaInfo ######
General
Unique ID : 291020126401627345506212040290779203950 (0xDAF070059C8DA6384A9C6EF37E3F096E)
Complete name : Bullet.Train.Bistro.2.S01E05.1080p.HuluJP.WEB-DL.AAC.2.0.H.264-BlackTV.mkv
Duration : 24 min 0 s
Overall bit rate : 4 227 kb/s

Video
ID : 1
Format : AVC
Format/Info : Advanced Video Codec
Format profile : High@L4
Format settings : CABAC / 4 Ref Frames
Format settings, CABAC : Yes
Format settings, Reference frames : 4 frames
Codec ID : V_MPEG4/ISO/AVC
Duration : 23 min 59 s
Bit rate : 3 971 kb/s
Width : 1 920 pixels
Height : 1 080 pixels
Display aspect ratio : 16:9
Frame rate mode : Constant
Frame rate : 29.970 (30000/1001) FPS
Color space : YUV
Chroma subsampling : 4:2:0
Bit depth : 8 bits
Scan type : Progressive
Bits/(Pixel*Frame) : 0.064
Stream size : 682 MiB (94%)
Language : Japanese
Default : Yes
Forced : No
Color range : Limited
Color primaries : BT.709
Transfer characteristics : BT.709
Matrix coefficients : BT.709

Audio
ID : 2
Format : AAC LC
Format/Info : Advanced Audio Codec Low Complexity
Codec ID : A_AAC-2
Duration : 24 min 0 s
Bit rate : 253 kb/s
Channel(s) : 2 channels
Channel layout : L R
Sampling rate : 48.0 kHz
Frame rate : 46.875 FPS (1024 SPF)
Compression mode : Lossy
Stream size : 43.5 MiB (6%)
Language : Japanese
Default : Yes
Forced : No


点击图片可查看大图

软字幕无法在截图上展现,HDR版本/杜比视界版本截图会出现颜色异常,请使用支持的设备播放!



1 个附件 售价 大小 下载 时间

Bullet.Train.Bistro.2.S01.1080p.HuluJP.WEB-DL.AAC.2.0.H.264-BlackTV[1LOU.ME].torrent 0 金币 4.49K 63 次 17天前

#1楼
发帖时间:2024-02-13 09:55:17   |   回复数:0
游客组