BILL36
超凡入圣№

[2024] [韩国] [爱情] [WEB-1080P] 品牌in圣水洞[第06集][中文字幕].Branding.in.Seongsu.S01.2024.1080p.WEB-DL.H264.AAC-ZeroTV 1.

-->

完整标题:品牌in圣水洞[第06集][中文字幕].Branding.in.Seongsu.S01.2024.1080p.WEB-DL.H264.AAC-ZeroTV 1.33GB



◎标  题 品牌in圣水洞
◎译  名 圣水洞之吻 / Branding in Seongsu
◎片  名 브랜딩 인 성수동
◎年  代 2024
◎产  地 韩国
◎类  别 爱情 / 奇幻
◎语  言 韩语
◎IMDb链接 https://www.imdb.com/title//
◎豆瓣链接 https://movie.douban.com/subject/36490341/
◎导  演 郑宪秀 Heon-soo Jung
◎编  剧 崔善美 Choi Sun-mi
◎演  员 金智恩 Ji-eun Kim
      朴所罗门 Park Solomon
      杨惠智 Yang Hye-ji
      郑怡朗 Jung Yi-rang
      安妍红 Yang-ho Wi
      蔡秀雅 Soo-ah Chae
      金英才 Young-Jae Kim
      金皓英 Ho-young Kim
      李光熙 Kwang-hee Lee
      全俊昊 Jun-ho Jeon

◎简  介
    以品牌麦加——圣水洞为背景,讲述了刻薄的营销组长姜娜恩和实习生苏恩浩在意外的接吻后经历灵魂交换后发生的浪漫奇幻故事。

部分资源为软字幕,移动端推荐播放器:MxPlayer,nPlayer,infuse ,其他播放器请自行尝试。

部分资源为软字幕,电脑端推荐播放器:PotPlayer,完美解码,KMPLAYER,其他播放器请自行尝试。

##### MediaInfo ######
General
Unique ID : 31471656417737540288109747455298465753 (0x17AD3875ED92902E22434424FB116FD9)
Complete name : Branding.in.Seongsu.S01E06.2024.1080p.WEB-DL.H264.AAC-ZeroTV.mkv
Duration : 24 min 55 s
Overall bit rate : 7 616 kb/s

Video
ID : 1
Format : AVC
Format/Info : Advanced Video Codec
Format profile : [email protected]
Format settings : CABAC / 1 Ref Frames
Format settings, CABAC : Yes
Format settings, Reference frames : 1 frame
Format settings, GOP : M=1, N=60
Codec ID : V_MPEG4/ISO/AVC
Duration : 24 min 55 s
Bit rate mode : Constant
Bit rate : 7 487 kb/s
Nominal bit rate : 8 000 kb/s
Width : 1 920 pixels
Height : 1 080 pixels
Display aspect ratio : 16:9
Frame rate mode : Constant
Frame rate : 29.970 (30000/1001) FPS
Color space : YUV
Chroma subsampling : 4:2:0
Bit depth : 8 bits
Scan type : Progressive
Bits/(Pixel*Frame) : 0.120
Stream size : 1.30 GiB (98%)
Language : English
Default : Yes
Forced : No

Audio
ID : 2
Format : AAC LC
Format/Info : Advanced Audio Codec Low Complexity
Codec ID : A_AAC-2
Duration : 24 min 55 s
Bit rate : 125 kb/s
Channel(s) : 2 channels
Channel layout : L R
Sampling rate : 48.0 kHz
Frame rate : 46.875 FPS (1024 SPF)
Compression mode : Lossy
Stream size : 22.4 MiB (2%)
Title : 韩语
Language : Korean
Default : Yes
Forced : No

Text #1
ID : 3
Format : UTF-8
Codec ID : S_TEXT/UTF8
Codec ID/Info : UTF-8 Plain Text
Duration : 24 min 47 s
Bit rate : 47 b/s
Frame rate : 0.227 FPS
Count of elements : 338
Stream size : 8.65 KiB (0%)
Title : 简体中文
Language : Chinese
Default : No
Forced : No

Text #2
ID : 4
Format : UTF-8
Codec ID : S_TEXT/UTF8
Codec ID/Info : UTF-8 Plain Text
Duration : 24 min 47 s
Bit rate : 47 b/s
Frame rate : 0.227 FPS
Count of elements : 338
Stream size : 8.65 KiB (0%)
Title : 繁体中文
Language : Chinese
Default : No
Forced : No


点击图片可查看大图

软字幕无法在截图上展现,HDR版本/杜比视界版本截图会出现颜色异常,请使用支持的设备播放!



1 个附件 售价 大小 下载 时间

Branding.in.Seongsu.S01.2024.1080p.WEB-DL.H264.AAC-ZeroTV[1LOU.ME].torrent 0 金币 6.01K 217 次 17天前

#1楼
发帖时间:2024-02-13 09:54:40   |   回复数:0
游客组