BILL36
超凡入圣№

[2024] [大陆] [剧情] [WEB-4K] 甜甜的陷阱[第17集][国语配音/中文字幕].Sweet.Trap.S01.2024.2160p.WEB-DL.H265.DDP-BlackTV 0.71GB

-->

完整标题:甜甜的陷阱[第17集][国语配音/中文字幕].Sweet.Trap.S01.2024.2160p.WEB-DL.H265.DDP-BlackTV 0.71GB



◎标  题 甜甜的陷阱
◎年  代 2024
◎产  地 中国大陆
◎类  别 剧情 / 爱情
◎语  言 汉语普通话
◎IMDb链接 https://www.imdb.com/title//
◎豆瓣链接 https://movie.douban.com/subject/35964260/
◎导  演 邓展能 Can
◎演  员 谢彬彬 Binbin Xie
      张淼怡 Miaoyi Zhang
      田栩宁 Xuning Tian
      彭雅琦 Yaqi Peng
      徐扬灏 Yanghao Xu
      李书漫 Shuman Li
      谢心 Xin Xie
      史超 Chao Shi
      杨旻咏 Kimi Yang
      叶啸秋 Xiaoqiu Ye

◎简  介
    学徒李柰(张淼怡 饰)为帮助师傅夺回代表荣誉的五星菜刀,“卧底敌营”,只为有朝一日打败“名厨杀手”姜芥(谢彬彬 饰),却跌入姜芥设计的“陷阱”。该剧以中华传统美食为背景,厨艺界小白与厨艺界“夺刀杀手”开启了一场斗智斗勇,相生相克的“甜斗”之路。

部分资源为软字幕,移动端推荐播放器:MxPlayer,nPlayer,infuse ,其他播放器请自行尝试。

部分资源为软字幕,电脑端推荐播放器:PotPlayer,完美解码,KMPLAYER,其他播放器请自行尝试。

##### MediaInfo ######
General
Unique ID : 326085396611537869331422759627485561988 (0xF551C35267C0DEA577D2CB7BC2134484)
Complete name : Sweet.Trap.S01E17.2024.2160p.WEB-DL.H265.DDP-BlackTV.mkv
Duration : 38 min 7 s
Overall bit rate : 2 643 kb/s

Video
ID : 1
Format : HEVC
Format/Info : High Efficiency Video Coding
Format profile : Main@L5@Main
Codec ID : V_MPEGH/ISO/HEVC
Duration : 38 min 7 s
Bit rate : 2 259 kb/s
Width : 3 840 pixels
Height : 2 160 pixels
Display aspect ratio : 16:9
Frame rate mode : Constant
Frame rate : 25.000 FPS
Color space : YUV
Chroma subsampling : 4:2:0
Bit depth : 8 bits
Bits/(Pixel*Frame) : 0.011
Stream size : 616 MiB (85%)
Writing library : Tencent-V265-1.6.9.1-p1k184g16lh64f4ra1.
Language : Chinese
Default : Yes
Forced : No
Color range : Limited
Color primaries : BT.709
Transfer characteristics : BT.709
Matrix coefficients : BT.709
VENDOR_ID : [0][0][0][0]

Audio #1
ID : 2
Format : E-AC-3
Format/Info : Enhanced AC-3
Commercial name : Dolby Digital Plus
Codec ID : A_EAC3
Duration : 38 min 7 s
Bit rate mode : Constant
Bit rate : 256 kb/s
Channel(s) : 2 channels
Channel layout : L R
Sampling rate : 48.0 kHz
Frame rate : 31.250 FPS (1536 SPF)
Bit depth : 32 bits
Compression mode : Lossy
Delay relative to video : -42 ms
Stream size : 69.8 MiB (10%)
Title : Mandarin [DDP2.0]
Language : Chinese
Service kind : Complete Main
Default : Yes
Forced : No
VENDOR_ID : [0][0][0][0]

Audio #2
ID : 3
Format : AAC LC
Format/Info : Advanced Audio Codec Low Complexity
Codec ID : A_AAC-2
Duration : 38 min 7 s
Bit rate : 125 kb/s
Channel(s) : 2 channels
Channel layout : L R
Sampling rate : 48.0 kHz
Frame rate : 46.875 FPS (1024 SPF)
Compression mode : Lossy
Delay relative to video : -42 ms
Stream size : 34.2 MiB (5%)
Title : Mandarin [AAC2.0]
Language : Chinese
Default : No
Forced : No
VENDOR_ID : [0][0][0][0]


点击图片可查看大图

软字幕无法在截图上展现,HDR版本/杜比视界版本截图会出现颜色异常,请使用支持的设备播放!



2 个附件 售价 大小 下载 时间

Judge.Dee's.Mystery.S01.2024.2160p.WEB-DL.H265.AAC-BlackTV[1LOU.ME].torrent 0 金币 10.34K 126 次 17天前

Sweet.Trap.S01.2024.2160p.WEB-DL.H265.DDP-BlackTV[1LOU.ME].torrent 0 金币 4.48K 147 次 17天前

#1楼
发帖时间:2024-02-12 21:35:17   |   回复数:0
游客组