BILL36
超凡入圣№

[2024] [大陆] [悬疑] [WEB-4K] 大唐狄公案[第11-12集][国语配音/中文字幕].Judge.Dee's.Mystery.S01.2024.2160p.WEB-DL.H265.AAC-Zer

-->

完整标题:大唐狄公案[第11-12集][国语配音/中文字幕].Judge.Dee's.Mystery.S01.2024.2160p.WEB-DL.H265.AAC-ZeroTV 2.68GB



◎标  题 大唐狄公案
◎译  名 Judge Dee‘s Mystery
◎年  代 2024
◎产  地 中国大陆
◎类  别 悬疑 / 古装
◎语  言 汉语普通话
◎IMDb链接 https://www.imdb.com/title/tt29363748/
◎豆瓣链接 https://movie.douban.com/subject/35459025/
◎导  演 李云亮 Yunliang Li
◎编  剧 京榆 Yu Jing
      吉姆·基布尔
      杜迪·阿普尔顿
      高罗佩 Robert van Gulik
◎演  员 周一围 Yiwei Zhou
      王丽坤 Likun Wang
      钟楚曦 Elane Zhong
      张嘉益 Jiayi Zhang
      张若昀 Ruoyun Zhang
      尤勇智 Yongzhi You
      姬他 Ta Ji
      凌孜 Ling Zi
      李晨 Chen Li
      李乃文 Naiwen Li
      刘端端 Duanduan Liu
      克拉拉 Clara Lee
      杨雪 Xue Yang
      陈都灵 Duling Chen
      衣珊 Shan Yi
      王劲松 Jinsong Wang
      余皑磊 Ailei Yu
      蒋毅 Yi Jiang
      张晞临 Xilin Zhang
      印小天 Xiaotian Yin
      王茂蕾 Maolei Wang
      言杰 Jie Yan
      何中华 Zhonghua He
      王梓权 Kaavie Wong
      吴嵩 Song Wu
      秦杉 Shan Qin
      赵雷棋 Leiqi Zhao
      冯兵 Bing Feng
      杨明娜 Minna Yang
      任舒悦 Shuyue Ren
      李洋 Yang Li
      陈宝国 Baoguo Chen
      林家川 Jiachuan Lin
      杨皓宇 Haoyu Yang
      康杰 Jie Kang
      栾元晖 Yuanhui Luan
      翟小兴 Xiaoxing Zhai
      周铁 Tie Zhou
      杨帆 Fan Yang
      姚卓君 Zhuojun Yao
      肖龙 Long Xiao
      牛子藩 Zifan Niu
      牛飘 Piao Niu
      王双宝 Shuangbao Wang
      贾梓 Zi Jia
      郭晓小 Xiaoxiao Guo
      李慕羽
      袁墨凡 Mofan Yuan
      马千壹 Qianyi Ma
      姜峰 Feng Jiang
      周小飞 Xiaofei Zhou
      张一杰 Yijie Zhang
      张佳航 Jiahang Zhang
      吴旗 Qi Wu
      闫勤 Qin Yan
      郑伟 Wei Zheng
      周俞辰 Yuchen Zhou
      许京川 Jingchuan Xu
      史艳 Yan Shi
      刘伟明 Weiming Liu
      曹曦文 Xiwen Cao
      董璇 Xuan Dong
      张子健 Zijian Zhang
      萨顶顶 Dingding Sa
      肖添仁 Tianren Xiao
      牛超 Chao Niu

◎简  介
    大唐初年,象征皇后权力的凤印丢失,并引发矫诏杀害当朝官员的事件, “凤印案”引起朝中异动,守旧派面上无恙,暗地加紧了串联密谋。而赶考科举的狄仁杰(周一围 饰),正逢此时无意中卷入一桩离奇的杀人案。   本剧由狄仁杰查案发现杀人案与凤印丢失事件暗合开始,通过讲述狄仁杰履职各地屡破奇案,惩治贪官、护海防、肃黑恶、申律法、助民安,同时得以勘破自己身世之谜的故事讲述,展现了狄仁杰知行合一的人生信条。

部分资源为软字幕,移动端推荐播放器:MxPlayer,nPlayer,infuse ,其他播放器请自行尝试。

部分资源为软字幕,电脑端推荐播放器:PotPlayer,完美解码,KMPLAYER,其他播放器请自行尝试。

##### MediaInfo ######
General
Complete name : 大唐狄公案.Judge.Dee's.Mystery.S01E11.2024.2160p.WEB-DL.H265.AAC-ZeroTV.mp4
Duration : 39 min 41 s
Overall bit rate mode : Variable
Overall bit rate : 3 895 kb/s

Video
ID : 1
Format : HEVC
Format/Info : High Efficiency Video Coding
Format profile : Main 10@L5@Main
Codec ID : hev1
Codec ID/Info : High Efficiency Video Coding
Duration : 39 min 41 s
Bit rate : 3 696 kb/s
Width : 3 840 pixels
Height : 2 160 pixels
Display aspect ratio : 16:9
Frame rate mode : Constant
Frame rate : 25.000 FPS
Color space : YUV
Chroma subsampling : 4:2:0
Bit depth : 10 bits
Bits/(Pixel*Frame) : 0.018
Stream size : 1.02 GiB (95%)
Color range : Limited
Color primaries : BT.709
Transfer characteristics : BT.709
Matrix coefficients : BT.709
Codec configuration box : hvcC

Audio
ID : 2
Format : AAC LC
Format/Info : Advanced Audio Codec Low Complexity
Codec ID : mp4a-40-2
Duration : 39 min 41 s
Bit rate mode : Variable
Bit rate : 192 kb/s
Maximum bit rate : 195 kb/s
Channel(s) : 2 channels
Channel layout : L R
Sampling rate : 44.1 kHz
Frame rate : 43.066 FPS (1024 SPF)
Compression mode : Lossy
Stream size : 54.5 MiB (5%)
Default : Yes
Alternate group : 1


点击图片可查看大图

软字幕无法在截图上展现,HDR版本/杜比视界版本截图会出现颜色异常,请使用支持的设备播放!



1 个附件 售价 大小 下载 时间

Judge.Dee's.Mystery.S01.2024.2160p.WEB-DL.H265.AAC-ZeroTV[1LOU.ME].torrent 0 金币 9.57K 1701 次 17天前

#1楼
发帖时间:2024-02-12 21:33:53   |   回复数:0
游客组