BILL36
超凡入圣№

[2024] [大陆] [剧情] [WEB-4K] 喜卷常乐城[第17集][国语配音/中文字幕].The.Happy.Seven.in.Changan.S01.2024.2160p.WEB-DL.H265.DDP

-->

完整标题:喜卷常乐城[第17集][国语配音/中文字幕].The.Happy.Seven.in.Changan.S01.2024.2160p.WEB-DL.H265.DDP-BlackTV 0.47GB



◎标  题 喜卷常乐城
◎译  名 喜卷长安城 / 雷府乐居传
◎年  代 2024
◎产  地 中国大陆
◎类  别 剧情 / 喜剧 / 爱情 / 古装
◎语  言 汉语普通话
◎IMDb链接 https://www.imdb.com/title//
◎豆瓣链接 https://movie.douban.com/subject/35991647/
◎导  演 武雨泽 Yuze Wu
◎编  剧 李志敏 Zhimin Li
◎演  员 马天宇 Ray Ma
      卜冠今 Guanjin Bu
      宗俊涛 Juntao Zong
      张一铎 Yiduo Zhang
      成果 Guo Cheng
      李胤维 Yinwei Li
      任梓慧 Zihui Ren
      米热 Merxat
      曹征 Zheng Cao
      高晓攀 Xiaopan Gao
      佟磊 Lei Tong
      尚九熙 Jiuxi Shang
      嵇嘉禾 Jiahe Ji
      李凯馨 Eleanor Lee
      刘思维 Siwei Liu
      张小婉 Xiaowan Zhang
      胡宇轩 Yuxuan Hu
      傅铂涵 Bohan Fu
      潘德文 Dewen Pan
      王琳 Lin Wang
      范明 Ming Fan
      潘斌龙 Binlong Pan

◎简  介
    一座重债之下的破败府邸、两段跨越阶级的天赐姻缘、三个自身难保的异乡少女、四位迥然不同的老少爷们,嬉笑怒骂间、讲述普通“长漂”微小却闪亮的生活故事。

部分资源为软字幕,移动端推荐播放器:MxPlayer,nPlayer,infuse ,其他播放器请自行尝试。

部分资源为软字幕,电脑端推荐播放器:PotPlayer,完美解码,KMPLAYER,其他播放器请自行尝试。

##### MediaInfo ######
General
Unique ID : 78585779031813079908501502302860428062 (0x3B1F120C8D7405853BEE25888719431E)
Complete name : The.Happy.Seven.in.Changan.S01E17.2024.2160p.WEB-DL.H265.DDP-BlackTV.mkv
Duration : 34 min 58 s
Overall bit rate : 1 932 kb/s

Video
ID : 1
Format : HEVC
Format/Info : High Efficiency Video Coding
Format profile : Main@L5@Main
Codec ID : V_MPEGH/ISO/HEVC
Duration : 34 min 58 s
Bit rate : 1 548 kb/s
Width : 3 840 pixels
Height : 1 632 pixels
Display aspect ratio : 2.35:1
Frame rate mode : Constant
Frame rate : 25.000 FPS
Color space : YUV
Chroma subsampling : 4:2:0
Bit depth : 8 bits
Bits/(Pixel*Frame) : 0.010
Stream size : 387 MiB (80%)
Writing library : Tencent-V265-1.6.9.1-p1k184g16lh64f4ra1.
Language : Chinese
Default : Yes
Forced : No
Color range : Limited
Color primaries : BT.709
Matrix coefficients : BT.709
VENDOR_ID : [0][0][0][0]

Audio #1
ID : 2
Format : E-AC-3
Format/Info : Enhanced AC-3
Commercial name : Dolby Digital Plus
Codec ID : A_EAC3
Duration : 34 min 58 s
Bit rate mode : Constant
Bit rate : 256 kb/s
Channel(s) : 2 channels
Channel layout : L R
Sampling rate : 48.0 kHz
Frame rate : 31.250 FPS (1536 SPF)
Bit depth : 32 bits
Compression mode : Lossy
Delay relative to video : -42 ms
Stream size : 64.0 MiB (13%)
Title : Mandarin [DDP2.0]
Language : Chinese
Service kind : Complete Main
Default : Yes
Forced : No
VENDOR_ID : [0][0][0][0]

Audio #2
ID : 3
Format : AAC LC
Format/Info : Advanced Audio Codec Low Complexity
Codec ID : A_AAC-2
Duration : 34 min 58 s
Bit rate : 125 kb/s
Channel(s) : 2 channels
Channel layout : L R
Sampling rate : 48.0 kHz
Frame rate : 46.875 FPS (1024 SPF)
Compression mode : Lossy
Delay relative to video : -42 ms
Stream size : 31.4 MiB (6%)
Title : Mandarin [AAC2.0]
Language : Chinese
Default : No
Forced : No
VENDOR_ID : [0][0][0][0]


点击图片可查看大图

软字幕无法在截图上展现,HDR版本/杜比视界版本截图会出现颜色异常,请使用支持的设备播放!



1 个附件 售价 大小 下载 时间

The.Happy.Seven.in.Changan.S01.2024.2160p.WEB-DL.H265.DDP-BlackTV[1LOU.ME].torrent 0 金币 3.93K 294 次 17天前

#1楼
发帖时间:2024-02-12 21:32:24   |   回复数:0
游客组