BILL36
超凡入圣№

[2024] [大陆] [剧情] [WEB-4K] 南来北往[第14-15集][国语配音/中文字幕].Always.on.the.Move.S01.2024.2160p.WEB-DL.H265.DDP5.1-Ze

-->

完整标题:南来北往[第14-15集][国语配音/中文字幕].Always.on.the.Move.S01.2024.2160p.WEB-DL.H265.DDP5.1-ZeroTV 3.75GB



◎标  题 南来北往
◎译  名 三棵树
◎年  代 2024
◎产  地 中国大陆
◎类  别 剧情 / 家庭 / 犯罪
◎语  言 汉语普通话
◎IMDb链接 https://www.imdb.com/title/tt27951223/
◎豆瓣链接 https://movie.douban.com/subject/35237053/
◎导  演 郑晓龙 Xiaolong Zheng
      刘璋牧 Zhangmu Liu
◎编  剧 高满堂 Mantang Gao
      李洲 Zhou Li
◎演  员 白敬亭 Jingting Bai
      丁勇岱 Yongdai Ding
      金晨 Chen Jin
      左小青 Xiaoqing Zuo
      刘钧 Jun Liu
      姜妍 Yan Jiang
      刘冠麟 Guanlin Liu
      胡可 Ke Hu
      倪大红 Dahong Ni
      李乃文 Naiwen Li
      任正斌 Zheng-bin Ren
      张瑞涵 Ruihan Zhang
      唐旭 Xu Tang
      杨昆 Kun Yang
      王劲松 Jinsong Wang
      房子斌 Zibin Fang
      檀健次 Jianci Tan
      吴樾 Yue Wu
      宁理 Li Ning
      甘婷婷 Tingting Gan
      王鹤润 Herun Wang
      潘斌龙 Binlong Pan
      李思博 Sibo Li
      汤梦佳 Melody Tang
      包贝尔 Bei'er Bao
      宋家腾 Jiateng Song
      王沛禄 Peilu Wang
      苇青 Qing Wei
      王小利 Xiaoli Wang
      穆丽燕 Liyan Mu
      张潮 Chao Zhang
      刘占奎 Zhankui Liu
      李琳 Lin Li
      李勤勤 Qinqin Li
      崔奕 Yi Cui
      张垒 Lei Zhang
      石云鹏 Yunpeng Shi
      王媛可 Yuanke Wang
      徐囡楠 Nannan Xu
      张磊 Lei Zhang
      林潇 Xiao Lin
      梁祖维 Zuwei Liang
      侯博睿 Ryan

◎简  介
    1978年,大连开往三棵树的列车上,年轻乘警汪新第一次执勤就在抓捕行动中负伤,却因祸得福结识了铁路公安老刑警马魁,二人结为师徒,并肩战斗在铁路公安第一线。在这条铁路线上,40年间,他们经历了蒸汽机车、电力机车、动车高铁时代,见证了祖国的伟大成就和人民生活的巨大变化。汪新、马魁为代表的一线铁路公安干警,反扒、打拐、缉毒、巡线、守护、打击盗抢骗、扫黑除恶,几十年如一日破大案、解决小案、给旅客送温暖、共和谐。为了保卫人民生命财产安全,铁路公安干警甚至牺牲了宝贵的生命。列车上来来往往的旅客,带着各个时期不同的印记,展示了人情冷暖、人生百态。新老两代干警也在自己的人生经历中得到了境界的升华,忠诚警魂、薪火相传。

部分资源为软字幕,移动端推荐播放器:MxPlayer,nPlayer,infuse ,其他播放器请自行尝试。

部分资源为软字幕,电脑端推荐播放器:PotPlayer,完美解码,KMPLAYER,其他播放器请自行尝试。

##### MediaInfo ######
General
Unique ID : 336563582714450716336316399036912050804 (0xFD33C9C8648CF0BC9AC0A695572B2274)
Complete name : 南来北往.Always.on.the.Move.S01E14.2024.2160p.WEB-DL.H265.DDP5.1-ZeroTV.mkv
Duration : 46 min 8 s
Overall bit rate : 5 651 kb/s

Video
ID : 1
Format : HEVC
Format/Info : High Efficiency Video Coding
Format profile : Main@L5@Main
Codec ID : V_MPEGH/ISO/HEVC
Duration : 46 min 7 s
Bit rate : 5 201 kb/s
Width : 3 840 pixels
Height : 2 160 pixels
Display aspect ratio : 16:9
Frame rate mode : Constant
Frame rate : 25.000 FPS
Color space : YUV
Chroma subsampling : 4:2:0
Bit depth : 8 bits
Bits/(Pixel*Frame) : 0.025
Stream size : 1.68 GiB (92%)
Default : Yes
Forced : No

Audio #1
ID : 2
Format : AAC LC
Format/Info : Advanced Audio Codec Low Complexity
Codec ID : A_AAC-2
Duration : 46 min 8 s
Bit rate : 192 kb/s
Channel(s) : 2 channels
Channel layout : L R
Sampling rate : 44.1 kHz
Frame rate : 43.066 FPS (1024 SPF)
Compression mode : Lossy
Stream size : 63.3 MiB (3%)
Language : Chinese
Default : No
Forced : No

Audio #2
ID : 3
Format : E-AC-3
Format/Info : Enhanced AC-3
Commercial name : Dolby Digital Plus
Codec ID : A_EAC3
Duration : 46 min 7 s
Bit rate mode : Constant
Bit rate : 256 kb/s
Channel(s) : 6 channels
Channel layout : L R C LFE Ls Rs
Sampling rate : 48.0 kHz
Frame rate : 31.250 FPS (1536 SPF)
Compression mode : Lossy
Stream size : 84.5 MiB (5%)
Language : Chinese
Service kind : Complete Main
Default : Yes
Forced : No


点击图片可查看大图

软字幕无法在截图上展现,HDR版本/杜比视界版本截图会出现颜色异常,请使用支持的设备播放!



1 个附件 售价 大小 下载 时间

Always.on.the.Move.S01.2024.2160p.WEB-DL.H265.DDP5.1-ZeroTV[1LOU.ME].torrent 0 金币 12.24K 497 次 17天前

#1楼
发帖时间:2024-02-12 21:29:05   |   回复数:0
游客组