BILL36
超凡入圣№

[2023] [大陆] [剧情] [WEB-1080P] 点心之路[全24集][国语配音/中文字幕].The.Baking.Challenge.S01.2023.1080p.WEB-DL.H264.AAC-BlackT

-->

完整标题:点心之路[全24集][国语配音/中文字幕].The.Baking.Challenge.S01.2023.1080p.WEB-DL.H264.AAC-BlackTV 16.91GB



◎标  题 点心之路
◎年  代 2023
◎产  地 中国大陆
◎类  别 剧情
◎语  言 汉语普通话
◎IMDb链接 https://www.imdb.com/title//
◎豆瓣链接 https://movie.douban.com/subject/35451885/
◎导  演 蓝海瀚 Allen Lan
      王飞 Fei Wang
◎编  剧 李喆 Zhe Li
◎演  员 王彦霖 Yanlin Wang
      赵小棠 Xiaotang Zhao
      钟镇涛 Kenny Bee
      郑繁星 Fanxing Zheng
      奚美娟 Meijuan Xi
      闫肃 Su Yan
      王朱悦 Zhuyue Wang
      蓝曼予 Manyu Lan
      赵滨 Bin Zhao
      杨舒亦 YiYi

◎简  介
    讲述不同经历的五人因点心结缘,几经波折组成点心战队一路过关斩将,求取美食真经,最终问鼎美食巅峰的故事。

部分资源为软字幕,移动端推荐播放器:MxPlayer,nPlayer,infuse ,其他播放器请自行尝试。

部分资源为软字幕,电脑端推荐播放器:PotPlayer,完美解码,KMPLAYER,其他播放器请自行尝试。

##### MediaInfo ######
General
Unique ID : 177979516894111235750917638482712742850 (0x85E59BACED1ADE9D44683F80552A4BC2)
Complete name : The.Baking.Challenge.S01E01.2023.1080p.WEB-DL.H264.AAC-BlackTV.mkv
Duration : 49 min 4 s
Overall bit rate : 2 151 kb/s

Video
ID : 1
Format : AVC
Format/Info : Advanced Video Codec
Format profile : High@L4
Format settings : CABAC / 3 Ref Frames
Format settings, CABAC : Yes
Format settings, Reference frames : 3 frames
Codec ID : V_MPEG4/ISO/AVC
Duration : 49 min 4 s
Bit rate : 1 957 kb/s
Width : 1 920 pixels
Height : 808 pixels
Display aspect ratio : 2.40:1
Frame rate mode : Constant
Frame rate : 25.000 FPS
Color space : YUV
Chroma subsampling : 4:2:0
Bit depth : 8 bits
Scan type : Progressive
Bits/(Pixel*Frame) : 0.050
Stream size : 687 MiB (91%)
Language : Chinese
Default : Yes
Forced : No
Color range : Limited
Color primaries : BT.709
Transfer characteristics : BT.709
Matrix coefficients : BT.709

Audio
ID : 2
Format : AAC LC
Format/Info : Advanced Audio Codec Low Complexity
Codec ID : A_AAC-2
Duration : 49 min 4 s
Bit rate : 192 kb/s
Channel(s) : 2 channels
Channel layout : L R
Sampling rate : 44.1 kHz
Frame rate : 43.066 FPS (1024 SPF)
Compression mode : Lossy
Delay relative to video : -80 ms
Stream size : 67.4 MiB (9%)
Title : Mandarin [AAC2.0]
Language : Chinese
Default : No
Forced : No




1 个附件 售价 大小 下载 时间

The.Baking.Challenge.S01.2023.1080p.WEB-DL.H264.AAC-BlackTV[1LOU.ME].torrent 0 金币 47.23K 315 次 2月前

#1楼
发帖时间:2023-12-07 23:22:08   |   回复数:0
游客组