BILL36
超凡入圣№

[2023] [大陆] [剧情] [HDTV/HDrip] 此心安处是吾乡[第32集][国语配音/中文字幕].Solemn.Commitment.S01.2023.1080p.WEB-DL.H265.AAC-DDHDTV

-->

完整标题:此心安处是吾乡[第32集][国语配音/中文字幕].Solemn.Commitment.S01.2023.1080p.WEB-DL.H265.AAC-DDHDTV 0.27GB



◎标  题 此心安处是吾乡
◎年  代 2023
◎产  地 中国大陆
◎类  别 剧情
◎语  言 汉语普通话
◎IMDb链接 https://www.imdb.com/title/tt29931688/
◎豆瓣链接 https://movie.douban.com/subject/35790814/
◎导  演 曹振宇 Zhengyu Cao
◎编  剧 刘卫兵 Weibing Liu
◎演  员 任重 Zhong Ren
      安悦溪 Yuexi An
      于谨维 Jinwei Yu
      周野芒 Yemang Zhou
      田岷 Min Tian
      吴其江 Qijiang Wu
      杨之楹 Katherine Yang
      刘奕君 Yijun Liu
      王劲松 Jinsong Wang
      刘之冰 Zhibing Liu
      马元 Yuan Ma
      郭秋成 Qiucheng Guo
      李晓川 Xiaochuan Li
      申林 Lin Shen
      申林
      吴曼思 Mansi Wu
      张弓 Gong Zhang
      王蔷 Qiang Wang
      樊磊 Lei Fan
      郭晗 Han Guo
      苑冉 Ran Yuan
      闫勤 Qin Yan
      冯兵 Bing Feng
      冷海铭 Marco Leng
      田淼 Miao Tian
      李洪权 Hongquan Li
      纪帅 Shuai Ji
      闵政 Zheng Min
      王岚 Lan Wang
      赵正阳 Zhengyang Zhao
      任婉婧 Wanjing Ren
      刘广厚 Guanghou Liu
      颜景瑶 Jingyao Yan
      朱宏 Hong Zhu
      屈刚 Gang Qu
      滕爱弦 Aixian Teng
      王建兵 Jianbing Wang
      黄鹿凌 Luling Huang

◎简  介
    有这样一个鲜为人知的机构,为万家灯火保驾护航。有这样一群默默无闻的人,为岁月静好负重前行。首次揭开平安建设神秘面纱,为你找到中国社会保持长期稳定奇迹的关键之匙。

部分资源为软字幕,移动端推荐播放器:MxPlayer,nPlayer,infuse ,其他播放器请自行尝试。

部分资源为软字幕,电脑端推荐播放器:PotPlayer,完美解码,KMPLAYER,其他播放器请自行尝试。

##### MediaInfo ######
General
Complete name : 此心安处是吾乡.Solemn.Commitment.S01E32.2023.1080p.WEB-DL.H265.AAC-DDHDTV.mp4
Duration : 45 min 25 s
Overall bit rate mode : Variable
Overall bit rate : 837 kb/s

Video
ID : 1
Format : HEVC
Format/Info : High Efficiency Video Coding
Format profile : Main@L4@Main
Codec ID : hev1
Codec ID/Info : High Efficiency Video Coding
Duration : 45 min 25 s
Source duration : 45 min 25 s
Bit rate : 737 kb/s
Width : 1 920 pixels
Height : 1 080 pixels
Display aspect ratio : 16:9
Frame rate mode : Variable
Frame rate : 25.000 FPS
Minimum frame rate : 24.993 FPS
Maximum frame rate : 25.007 FPS
Color space : YUV
Chroma subsampling : 4:2:0
Bit depth : 8 bits
Bits/(Pixel*Frame) : 0.014
Stream size : 240 MiB (88%)
Source stream size : 240 MiB (88%)
Color range : Limited
Color primaries : BT.709
Transfer characteristics : BT.709
Matrix coefficients : BT.709
Codec configuration box : hvcC

Audio
ID : 2
Format : AAC LC
Format/Info : Advanced Audio Codec Low Complexity
Codec ID : mp4a-40-2
Duration : 45 min 25 s
Bit rate mode : Variable
Bit rate : 93.4 kb/s
Maximum bit rate : 97.0 kb/s
Channel(s) : 2 channels
Channel layout : L R
Sampling rate : 48.0 kHz
Frame rate : 46.875 FPS (1024 SPF)
Compression mode : Lossy
Stream size : 30.3 MiB (11%)
Default : Yes
Alternate group : 1




1 个附件 售价 大小 下载 时间

Solemn.Commitment.S01.2023.1080p.WEB-DL.H265.AAC-DDHDTV[1LOU.ME].torrent 0 金币 3.45K 189 次 2月前

#1楼
发帖时间:2023-12-07 23:20:33   |   回复数:0
游客组