BILL36
超凡入圣№

[2023] [大陆] [剧情] [WEB-4K] 夺骄[第09-10集][国语配音/中文字幕].Duo.Jiao.S01.2023.2160p.WEB-DL.H265.DDP2.0-DDHDTV 0.28GB

-->

完整标题:夺骄[第09-10集][国语配音/中文字幕].Duo.Jiao.S01.2023.2160p.WEB-DL.H265.DDP2.0-DDHDTV 0.28GB



◎标  题 夺骄
◎译  名 拐个刺客做头牌
◎年  代 2023
◎产  地 中国大陆
◎类  别 剧情 / 爱情 / 古装
◎语  言 汉语普通话
◎IMDb链接 https://www.imdb.com/title//
◎豆瓣链接 https://movie.douban.com/subject/36198814/
◎编  剧 王婷婷 ting ting wang
◎演  员 赵晴 Qing Zhao
      刘祉驿 Zhiyi Liu
      尚璇 Xuan Shang
      孙皓 Hao Sun
      黄子恩 Francis Huang

◎简  介
    风流商女强撩头牌男伎,双强CP过招,如何碰撞爱情花火?

部分资源为软字幕,移动端推荐播放器:MxPlayer,nPlayer,infuse ,其他播放器请自行尝试。

部分资源为软字幕,电脑端推荐播放器:PotPlayer,完美解码,KMPLAYER,其他播放器请自行尝试。

##### MediaInfo ######
General
Unique ID : 41865942062311741805376133699813862751 (0x1F7F164F405497E395095A0677096D5F)
Complete name : 夺骄.Duo.Jiao.S01E09.2023.2160p.WEB-DL.H265.DDP2.0-DDHDTV.mkv
Duration : 10 min 52 s
Overall bit rate : 1 835 kb/s

Video
ID : 1
Format : HEVC
Format/Info : High Efficiency Video Coding
Format profile : Main@L5@Main
Codec ID : V_MPEGH/ISO/HEVC
Duration : 10 min 52 s
Bit rate : 1 452 kb/s
Width : 3 840 pixels
Height : 1 634 pixels
Display aspect ratio : 2.35:1
Frame rate mode : Constant
Frame rate : 25.000 FPS
Color space : YUV
Chroma subsampling : 4:2:0
Bit depth : 8 bits
Bits/(Pixel*Frame) : 0.009
Stream size : 113 MiB (79%)
Writing library : Tencent-V265-1.6.9.1-p1k184g16lh64f4ra1.
Default : Yes
Forced : No
Color range : Limited
Color primaries : BT.709
Transfer characteristics : BT.709
Matrix coefficients : BT.709

Audio #1
ID : 2
Format : E-AC-3
Format/Info : Enhanced AC-3
Commercial name : Dolby Digital Plus
Codec ID : A_EAC3
Duration : 10 min 52 s
Bit rate mode : Constant
Bit rate : 256 kb/s
Channel(s) : 2 channels
Channel layout : L R
Sampling rate : 48.0 kHz
Frame rate : 31.250 FPS (1536 SPF)
Compression mode : Lossy
Delay relative to video : -42 ms
Stream size : 19.9 MiB (14%)
Title : Mandarin
Language : Chinese
Service kind : Complete Main
Default : Yes
Forced : No

Audio #2
ID : 3
Format : AAC LC
Format/Info : Advanced Audio Codec Low Complexity
Codec ID : A_AAC-2
Duration : 10 min 52 s
Bit rate : 125 kb/s
Channel(s) : 2 channels
Channel layout : L R
Sampling rate : 48.0 kHz
Frame rate : 46.875 FPS (1024 SPF)
Compression mode : Lossy
Delay relative to video : -42 ms
Stream size : 9.75 MiB (7%)
Title : Mandarin
Language : Chinese
Default : No
Forced : No




1 个附件 售价 大小 下载 时间

Duo.Jiao.S01.2023.2160p.WEB-DL.H265.DDP2.0-DDHDTV[1LOU.ME].torrent 0 金币 3.52K 105 次 2月前

#1楼
发帖时间:2023-12-07 23:12:29   |   回复数:0
游客组