BILL36
超凡入圣№

[2023] [大陆] [动画] [WEB-4K] 傲世九重天[第11集][国语配音/中文字幕].Transcending.the.Nine.Heavens.S01.2023.2160p.WEB-DL.H264.

-->

完整标题:傲世九重天[第11集][国语配音/中文字幕].Transcending.the.Nine.Heavens.S01.2023.2160p.WEB-DL.H264.AAC-DDHDTV 1.47GB



◎标  题 傲世九重天
◎译  名 Transcending the Nine Heavens
◎年  代 2023
◎产  地 中国大陆
◎类  别 动画
◎语  言 汉语普通话
◎IMDb链接 https://www.imdb.com/title//
◎豆瓣链接 https://movie.douban.com/subject/36141005/
◎导  演 袁靖波 JingBo Yuan
◎编  剧 李亦树 Yishu Li
◎演  员 钱文青 Wenqing Qian
      云惟一 Weiyi Yun
      卢力峰 Lifeng Lu
      贺文潇 Wenxiao He

◎简  介
    【bilibili出品】《傲世九重天》预告发布!重回到少年时,楚阳再次踏上寻找九劫剑之路。这一世,他将走出与前世的不同道路,保护自己的爱人与兄弟。   动画官方:@傲世九重天官方   原作:风凌天下   出品:bilibili、@阅文漫镜头   制作:福煦影视

部分资源为软字幕,移动端推荐播放器:MxPlayer,nPlayer,infuse ,其他播放器请自行尝试。

部分资源为软字幕,电脑端推荐播放器:PotPlayer,完美解码,KMPLAYER,其他播放器请自行尝试。

##### MediaInfo ######
General
Complete name : 傲世九重天.Transcending.the.Nine.Heavens.S01E11.2023.2160p.WEB-DL.H264.AAC-DDHDTV.mp4
Duration : 25 min 6 s
Overall bit rate : 8 376 kb/s

Video
ID : 1
Format : AVC
Format/Info : Advanced Video Codec
Format profile : [email protected]
Format settings : CABAC / 6 Ref Frames
Format settings, CABAC : Yes
Format settings, Reference frames : 6 frames
Codec ID : avc1
Codec ID/Info : Advanced Video Coding
Duration : 25 min 6 s
Bit rate : 8 175 kb/s
Width : 3 840 pixels
Height : 1 636 pixels
Display aspect ratio : 2.35:1
Frame rate mode : Constant
Frame rate : 25.000 FPS
Color space : YUV
Chroma subsampling : 4:2:0
Bit depth : 8 bits
Scan type : Progressive
Bits/(Pixel*Frame) : 0.052
Stream size : 1.43 GiB (98%)
Color range : Limited
Color primaries : BT.709
Transfer characteristics : BT.709
Matrix coefficients : BT.709
Codec configuration box : avcC

Audio
ID : 2
Format : AAC LC
Format/Info : Advanced Audio Codec Low Complexity
Codec ID : mp4a-40-2
Duration : 25 min 6 s
Bit rate mode : Constant
Bit rate : 192 kb/s
Channel(s) : 2 channels
Channel layout : L R
Sampling rate : 48.0 kHz
Frame rate : 46.875 FPS (1024 SPF)
Compression mode : Lossy
Stream size : 35.1 MiB (2%)
Language : Chinese
Default : Yes
Alternate group : 1




1 个附件 售价 大小 下载 时间

Transcending.the.Nine.Heavens.S01.2023.2160p.WEB-DL.H264.AAC-DDHDTV[1LOU.ME].torrent 0 金币 6.47K 350 次 2月前

#1楼
发帖时间:2023-12-07 23:07:39   |   回复数:0
游客组