BILL36
超凡入圣№

[2023] [大陆] [动作] [WEB-4K] 一念关山[第19-20集][国语配音/中文字幕].A.Journey.to.Love.S01.2023.2160p.WEB-DL.H265.HDR.DDP5.1

-->

完整标题:一念关山[第19-20集][国语配音/中文字幕].A.Journey.to.Love.S01.2023.2160p.WEB-DL.H265.HDR.DDP5.1-BlackTV 8.82GB



◎标  题 一念关山
◎译  名 A Journey to Love
◎年  代 2023
◎产  地 中国大陆
◎类  别 动作 / 古装
◎语  言 汉语普通话
◎IMDb链接 https://www.imdb.com/title/tt28182389/
◎豆瓣链接 https://movie.douban.com/subject/35797771/
◎导  演 周靖韬 Yuanzhou Zhou
      邹曦 Xi Zou
◎编  剧 张巍 Wei Zhang
◎演  员 刘诗诗 Shishi Liu
      刘宇宁 Yuning Liu
      方逸伦 Alen Fang
      何蓝逗 Lan He
      陈昊宇 Amy Chen
      常华森 Huasen Chang
      王艳 Yan Wang
      吕行 Xing Lü
      李欢 Huan Li
      陈宥维 Youwei Chen
      陈都灵 Duling Chen
      王一哲 Yizhe Wang
      陈小纭 Xiaoyun Chen
      张芷溪 Jessie Zhang
      黄梦莹 Maggie Huang
      张帆 Fan Zhang
      叶青 Qing Ye
      叶筱玮 Xiaowei Ye
      原若航 Ruohang Yuan
      吴弘 Hong Wu
      张垒 Lei Zhang
      苏梦芸 Mengyun Su
      张乔耳 Qiaoer Zhang
      周陆啦 Lula Zhou
      尹铸胜 Zhusheng Yin
      张天阳 Tianyang Zhang
      常铖 Cheng Chang
      曾柯琅 Kelang Zeng
      景如洋 Ruyang Jing

◎简  介
    新云洗绯色,黄沙漫漫红衣长。江湖行远舟,关山阵阵万重霜。   该剧讲述安国朱衣卫前左使任如意(刘诗诗 饰)因机缘巧合成为梧国迎帝使小分队成员,和梧国六道堂堂主宁远舟(刘宇宁 饰)、风流浪子于十三(方逸伦 饰)、公主杨盈(何蓝逗 饰)、聪敏少年元禄(陈宥维 饰)、御前侍卫钱昭(王一哲 饰)等人经历生死,共同成长的故事。

部分资源为软字幕,移动端推荐播放器:MxPlayer,nPlayer,infuse ,其他播放器请自行尝试。

部分资源为软字幕,电脑端推荐播放器:PotPlayer,完美解码,KMPLAYER,其他播放器请自行尝试。

##### MediaInfo ######
General
Unique ID : 263983216101418679608829224262275126978 (0xC699516D1219C81BB3DAC01629EB56C2)
Complete name : A.Journey.to.Love.S01E19.2023.2160p.WEB-DL.H265.HDR.DDP5.1-BlackTV.mkv
Duration : 48 min 7 s
Overall bit rate : 12.6 Mb/s

Video
ID : 1
Format : HEVC
Format/Info : High Efficiency Video Coding
Format profile : Main 10@L5@Main
HDR format : SMPTE ST 2086, HDR10 compatible
Codec ID : V_MPEGH/ISO/HEVC
Duration : 48 min 7 s
Bit rate : 12.2 Mb/s
Width : 3 840 pixels
Height : 2 160 pixels
Display aspect ratio : 16:9
Frame rate mode : Constant
Frame rate : 25.000 FPS
Color space : YUV
Chroma subsampling : 4:2:0
Bit depth : 10 bits
Bits/(Pixel*Frame) : 0.059
Stream size : 4.09 GiB (96%)
Language : Chinese
Default : Yes
Forced : No
Color range : Limited
Color primaries : BT.2020
Transfer characteristics : PQ
Matrix coefficients : BT.2020 non-constant
Mastering display color primaries : R: x=0.708000 y=0.292000, G: x=0.170000 y=0.797000, B: x=0.130000 y=0.046000, White point: x=0.312700 y=0.329000
Mastering display luminance : min: 0.0001 cd/m2, max: 1000 cd/m2
Maximum Content Light Level : 681 cd/m2
Maximum Frame-Average Light Level : 89 cd/m2

Audio #1
ID : 2
Format : E-AC-3
Format/Info : Enhanced AC-3
Commercial name : Dolby Digital Plus
Codec ID : A_EAC3
Duration : 48 min 7 s
Bit rate mode : Constant
Bit rate : 256 kb/s
Channel(s) : 6 channels
Channel layout : L R C LFE Ls Rs
Sampling rate : 48.0 kHz
Frame rate : 31.250 FPS (1536 SPF)
Compression mode : Lossy
Stream size : 88.1 MiB (2%)
Title : Mandarin [DDP5.1]
Language : Chinese
Service kind : Complete Main
Default : Yes
Forced : No

Audio #2
ID : 3
Format : AAC LC
Format/Info : Advanced Audio Codec Low Complexity
Codec ID : A_AAC-2
Duration : 48 min 7 s
Bit rate : 192 kb/s
Channel(s) : 2 channels
Channel layout : L R
Sampling rate : 44.1 kHz
Frame rate : 43.066 FPS (1024 SPF)
Compression mode : Lossy
Stream size : 66.1 MiB (2%)
Title : Mandarin [AAC2.0]
Language : Chinese
Default : No
Forced : No




1 个附件 售价 大小 下载 时间

A.Journey.to.Love.S01.2023.2160p.WEB-DL.H265.HDR.DDP5.1-BlackTV[1LOU.ME].torrent 0 金币 24.92K 1190 次 2月前

#1楼
发帖时间:2023-12-07 23:04:38   |   回复数:0
游客组