BILL36
超凡入圣№

[2023] [香港] [剧情] [WEB-1080P] 叠影狙击[第23-24集][国语音轨/简繁字幕].Dead.Ringer.S01.1080p.MyTVSuper.WEB-DL.AAC2.0.H.265-Bla

-->

完整标题:叠影狙击[第23-24集][国语音轨/简繁字幕].Dead.Ringer.S01.1080p.MyTVSuper.WEB-DL.AAC2.0.H.265-BlackTV 2.66GB



◎标  题 叠影狙击
◎译  名 Dead Ringer
◎片  名 疊影狙擊
◎年  代 2023
◎产  地 中国香港
◎类  别 剧情 / 动作 / 犯罪
◎语  言 粤语
◎IMDb链接 https://www.imdb.com/title//
◎豆瓣评分 7.0/10 (5228人评价)
◎豆瓣链接 https://movie.douban.com/subject/35638110/
◎导  演 洪金泼 Paul Hong
      李文舜 Man-son Lee
◎编  剧 廖雨琦
      蒋嘉昕
◎演  员 黄宗泽 Bosco Wong
      周秀娜 Chrissie Chaw
      黄浩然 Raymond Wong Ho-Yin
      陈少邦 Bond Chan
      汤俊明 Martin Tong Chun Ming
      李忠希 Jones Lee
      莫家淦 Keith Mok
      张智轩 Russell Cheung
      胡译聪 Raymond Wu
      陈堃 Oscar Chan Kwan
      刘沛蘅 Hillary Lau
      朱鉴然 Kevin Kam-Yin Chu
      郭政鸿 Jing-hung Kwok
      关礼杰 Eddie Kwan
      文颂娴 Annie Man
      张慧仪 Angie Cheung
      方力申 Lik-Sun Fong
      胡卓希 Jason Wu
      卢慧敏 Amy Lo
      艾威 Wei Ai
      秦煌 Wong Chun
      蔡颖恩 Evelyn Choi
      郑启泰 Eric Cheng
      河国荣 Gregory Charles Rivers
      古天祥 Carlos Koo
      张松枝 Deno Cheung
      苏宸褕 Kumer So
      张达伦 Max Cheung
      潘艺桐 Pearl Pan

◎简  介
    华裔女队长魏晓晨带领特警队,捣破人口贩卖集团基地,发现一具女性尸体,竟然是孪生妹妹梁曦,晓晨悲痛欲绝,发誓要用余生追查妹妹被杀真相。

部分资源为软字幕,移动端推荐播放器:MxPlayer,nPlayer,infuse ,其他播放器请自行尝试。

部分资源为软字幕,电脑端推荐播放器:PotPlayer,完美解码,KMPLAYER,其他播放器请自行尝试。

##### MediaInfo ######
General
Unique ID : 325578945940190220411626180587724185286 (0xF4F039603E97A11ED80CFE01F5979EC6)
Complete name : Dead.Ringer.S01E23.1080p.MyTVSuper.WEB-DL.AAC2.0.H.265-BlackTV.mkv
Duration : 45 min 59 s
Overall bit rate : 3 918 kb/s

Video
ID : 1
Format : HEVC
Format/Info : High Efficiency Video Coding
Format profile : Main@L4@Main
Codec ID : V_MPEGH/ISO/HEVC
Duration : 45 min 59 s
Bit rate : 3 788 kb/s
Width : 1 920 pixels
Height : 1 080 pixels
Display aspect ratio : 16:9
Frame rate mode : Constant
Frame rate : 25.000 FPS
Color space : YUV
Chroma subsampling : 4:2:0
Bit depth : 8 bits
Bits/(Pixel*Frame) : 0.073
Stream size : 1.22 GiB (97%)
Writing library : VOLOHEVC
Default : Yes
Forced : No
Color range : Limited

Audio
ID : 2
Format : AAC LC
Format/Info : Advanced Audio Codec Low Complexity
Codec ID : A_AAC-2
Duration : 45 min 59 s
Bit rate : 128 kb/s
Channel(s) : 2 channels
Channel layout : L R
Sampling rate : 48.0 kHz
Frame rate : 46.875 FPS (1024 SPF)
Compression mode : Lossy
Stream size : 42.1 MiB (3%)
Title : 粵語
Language : Chinese
Default : Yes
Forced : No

Text #1
ID : 3
Format : UTF-8
Codec ID : S_TEXT/UTF8
Codec ID/Info : UTF-8 Plain Text
Duration : 43 min 5 s
Bit rate : 48 b/s
Frame rate : 0.232 FPS
Count of elements : 600
Stream size : 15.3 KiB (0%)
Title : Simplified
Language : Chinese
Default : No
Forced : No

Text #2
ID : 4
Format : UTF-8
Codec ID : S_TEXT/UTF8
Codec ID/Info : UTF-8 Plain Text
Duration : 43 min 5 s
Bit rate : 48 b/s
Frame rate : 0.232 FPS
Count of elements : 600
Stream size : 15.3 KiB (0%)
Title : Traditional
Language : Chinese
Default : Yes
Forced : No




1 个附件 售价 大小 下载 时间

Dead.Ringer.S01.1080p.MyTVSuper.WEB-DL.AAC2.0.H.265-BlackTV[1LOU.ME].torrent 0 金币 9.50K 371 次 2月前

#1楼
发帖时间:2023-12-07 22:36:43   |   回复数:0
游客组