BILL36
超凡入圣№

[2023] [韩国] [剧情] [WEB-1080P] 今天也很可爱的狗[第09集][简繁英字幕].A.Good.Day.to.be.a.Dog.S01.1080p.Viu.WEB-DL.AAC2.0.H.264-B

-->

完整标题:今天也很可爱的狗[第09集][简繁英字幕].A.Good.Day.to.be.a.Dog.S01.1080p.Viu.WEB-DL.AAC2.0.H.264-BlackTV 1.01GB



◎标  题 今天也很可爱的狗
◎译  名 A Good Day To Be A Dog
◎片  名 오늘도 사랑스럽개
◎年  代 2023
◎产  地 韩国
◎类  别 剧情
◎语  言 韩语
◎IMDb评分 8.6/10 (387人评价)
◎IMDb链接 https://www.imdb.com/title/tt29006388/
◎豆瓣评分 7.8/10 (2807人评价)
◎豆瓣链接 https://movie.douban.com/subject/35890185/
◎导  演 金大雄 Dae-Woong Kim
◎编  剧 白仁雅 Baek In-ah
      李惠 Lee Hye
◎演  员 车银优 Cha Eun-Woo
      朴珪瑛 Gyoo-yeong Park
      李玹雨 Hyun-Woo Lee
      尹贤秀 Hyunsoo Yoon
      金伊敬 Yi-kyung Kim
      姜秀彬 Soo-bin Kang
      金洪杓 Kim Hong-pyo
      赵振世 Jin-se Cho
      金海俊 Hae-jun Kim
      韩贤俊 Hyun-Jun Han
      柳善英 Abell Ryu
      郑英珠 Young-ju Jung
      李瑞艾 Seo-ei Lee
      宋英雅 Yeong-ah Song
      刘承睦 Yoo Seung-Mok
      赵雅英 Jo Ah Young
      金河彦 Kim Ha Eon

◎简  介
    此剧讲述了每到凌晨就变成狗,想要解开诅咒的女人和一个怕狗的男人之间发生的推拉爱情故事。   由《今天也启动》的大雄导演执导,《流耳血的女人》的白仁雅编剧执笔,由我的ID是江南美人,模范出租车,花样男子的制作公司制作。

部分资源为软字幕,移动端推荐播放器:MxPlayer,nPlayer,infuse ,其他播放器请自行尝试。

部分资源为软字幕,电脑端推荐播放器:PotPlayer,完美解码,KMPLAYER,其他播放器请自行尝试。

##### MediaInfo ######
General
Unique ID : 160720752081671948655620208769940753605 (0x78E9B0DF9964B346D3F86F5733428CC5)
Complete name : A.Good.Day.To.Be.A.Dog.S01E09.1080p.Viu.WEB-DL.AAC2.0.H.264-BlackTV.mkv
Duration : 1 h 1 min
Overall bit rate mode : Variable
Overall bit rate : 2 360 kb/s

Video
ID : 1
Format : AVC
Format/Info : Advanced Video Codec
Format profile : [email protected]
Format settings : CABAC / 4 Ref Frames
Format settings, CABAC : Yes
Format settings, Reference frames : 4 frames
Codec ID : V_MPEG4/ISO/AVC
Duration : 1 h 1 min
Bit rate mode : Variable
Bit rate : 2 261 kb/s
Maximum bit rate : 4 500 kb/s
Width : 1 920 pixels
Height : 1 080 pixels
Display aspect ratio : 16:9
Frame rate mode : Constant
Frame rate : 29.970 (30000/1001) FPS
Original frame rate : 29.970 (29970/1000) FPS
Color space : YUV
Chroma subsampling : 4:2:0
Bit depth : 8 bits
Scan type : Progressive
Bits/(Pixel*Frame) : 0.036
Stream size : 987 MiB (96%)
Writing library : VOLO1.4.1
Default : Yes
Forced : No

Audio
ID : 2
Format : AAC LC
Format/Info : Advanced Audio Codec Low Complexity
Codec ID : A_AAC-2
Duration : 1 h 1 min
Bit rate : 96.0 kb/s
Channel(s) : 2 channels
Channel layout : L R
Sampling rate : 48.0 kHz
Frame rate : 46.875 FPS (1024 SPF)
Compression mode : Lossy
Delay relative to video : -42 ms
Stream size : 41.9 MiB (4%)
Default : Yes
Forced : No

Text #1
ID : 3
Format : UTF-8
Codec ID : S_TEXT/UTF8
Codec ID/Info : UTF-8 Plain Text
Duration : 1 h 0 min
Bit rate : 41 b/s
Frame rate : 0.195 FPS
Count of elements : 710
Stream size : 18.2 KiB (0%)
Title : English
Language : English
Default : No
Forced : No

Text #2
ID : 4
Format : UTF-8
Codec ID : S_TEXT/UTF8
Codec ID/Info : UTF-8 Plain Text
Duration : 1 h 0 min
Bit rate : 33 b/s
Frame rate : 0.190 FPS
Count of elements : 685
Stream size : 14.9 KiB (0%)
Title : Simplified
Language : Chinese
Default : No
Forced : No

Text #3
ID : 5
Format : UTF-8
Codec ID : S_TEXT/UTF8
Codec ID/Info : UTF-8 Plain Text
Duration : 1 h 0 min
Bit rate : 33 b/s
Frame rate : 0.190 FPS
Count of elements : 685
Stream size : 14.9 KiB (0%)
Title : Traditional
Language : Chinese
Default : Yes
Forced : No




1 个附件 售价 大小 下载 时间

A.Good.Day.to.be.a.Dog.S01.1080p.Viu.WEB-DL.AAC2.0.H.264-BlackTV[1LOU.ME].torrent 0 金币 5.27K 329 次 2月前

#1楼
发帖时间:2023-12-07 22:29:00   |   回复数:0
游客组