BILL36
超凡入圣№

[2023] [大陆] [动画] [HDTV/HDrip] 遮天[第34集][国语配音/中文字幕].Shrouding.the.Heavens.S01.2023.1080p.WEB-DL.H265.AAC-DDHDTV

-->

完整标题:遮天[第34集][国语配音/中文字幕].Shrouding.the.Heavens.S01.2023.1080p.WEB-DL.H265.AAC-DDHDTV 0.29GB



◎标  题 遮天
◎译  名 遮天 动画版 / Shrouding the Heavens
◎年  代 2023
◎产  地 中国大陆
◎类  别 动画 / 奇幻 / 冒险
◎语  言 汉语普通话
◎IMDb评分 7.5/10 (24人评价)
◎IMDb链接 https://www.imdb.com/title/tt27617390/
◎豆瓣评分 5.9/10 (6863人评价)
◎豆瓣链接 https://movie.douban.com/subject/35639782/
◎导  演 赵侠 Zhao Xia
◎编  剧 范圣怡 Shengyi Fan
      丁鹂 Li Ding
      徐俊 Jun Xu
      胡纯鸿
◎演  员 徐翔 Xiang Xu
      赵乾景 Qianjing Zhao
      吴磊 Lei Wu
      张若瑜 Zhang Ruoyu
      张欣 Xin Zhang
      王肖兵 Xiaobing Wang
      韩娇娇 Jiaojiao Han
      李蝉妃 Chanfei Li
      王文强 Wenqiang Wang

部分资源为软字幕,移动端推荐播放器:MxPlayer,nPlayer,infuse ,其他播放器请自行尝试。

部分资源为软字幕,电脑端推荐播放器:PotPlayer,完美解码,KMPLAYER,其他播放器请自行尝试。

##### MediaInfo ######
General
Complete name : 遮天.Shrouding.the.Heavens.S01E34.2023.1080p.WEB-DL.H265.AAC-DDHDTV.mp4
Duration : 21 min 12 s
Overall bit rate mode : Variable
Overall bit rate : 1 942 kb/s

Video
ID : 1
Format : HEVC
Format/Info : High Efficiency Video Coding
Format profile : Main@L4@Main
Codec ID : hev1
Codec ID/Info : High Efficiency Video Coding
Duration : 21 min 12 s
Source duration : 21 min 12 s
Bit rate : 1 842 kb/s
Width : 1 920 pixels
Height : 1 080 pixels
Display aspect ratio : 16:9
Frame rate mode : Variable
Frame rate : 25.000 FPS
Minimum frame rate : 24.993 FPS
Maximum frame rate : 25.007 FPS
Color space : YUV
Chroma subsampling : 4:2:0
Bit depth : 8 bits
Bits/(Pixel*Frame) : 0.036
Stream size : 279 MiB (95%)
Source stream size : 279 MiB (95%)
Color range : Limited
Color primaries : BT.709
Transfer characteristics : BT.709
Matrix coefficients : BT.709
Codec configuration box : hvcC

Audio
ID : 2
Format : AAC LC
Format/Info : Advanced Audio Codec Low Complexity
Codec ID : mp4a-40-2
Duration : 21 min 12 s
Bit rate mode : Variable
Bit rate : 93.4 kb/s
Maximum bit rate : 97.0 kb/s
Channel(s) : 2 channels
Channel layout : L R
Sampling rate : 48.0 kHz
Frame rate : 46.875 FPS (1024 SPF)
Compression mode : Lossy
Stream size : 14.2 MiB (5%)
Default : Yes
Alternate group : 1




1 个附件 售价 大小 下载 时间

Shrouding.the.Heavens.S01.2023.1080p.WEB-DL.H265.AAC-DDHDTV[1LOU.ME].torrent 0 金币 3.46K 245 次 2月前

#1楼
发帖时间:2023-12-07 22:17:56   |   回复数:0
游客组