BILL36
超凡入圣№

[2021] [大陆] [动作] [WEB-4K] 真武巅峰[第95集][国语配音/中文字幕].The.Peak.of.True.Martial.Arts.S01.2021.2160p.WEB-DL.H265.A

-->

完整标题:真武巅峰[第95集][国语配音/中文字幕].The.Peak.of.True.Martial.Arts.S01.2021.2160p.WEB-DL.H265.AAC-DDHDTV 0.27GB



◎标  题 真武巅峰
◎译  名 真武巅峰 第一季 / The Peak of True Martial Arts
◎年  代 2021
◎产  地 中国大陆
◎类  别 动作 / 动画 / 奇幻 / 冒险
◎语  言 汉语普通话
◎IMDb链接 https://www.imdb.com/title//
◎豆瓣链接 https://movie.douban.com/subject/35623377/
◎导  演 张明 Ming Zhang
◎编  剧 发飙的蜗牛 Tai Wang
      暗魔师 Lihua Zhang
◎演  员 唐泽宗 Zezong Tang
      吴浩 Hao Wu
      王辛 Xin Wang
      丁莹莹 Yingying Ding

◎简  介
    聂枫身负真阳之体,却出身平凡,命运坎坷,屡遭压迫算计,最终走上了独自与八大宗门对抗的道路,被八大宗门的武王联手逼入绝境,跳下绝天崖。不料,聂枫并未因此死去,而是重生回十七岁时的少年时代,这一世,他虽出身平凡,却身怀绝世武功,于武道中飞速崛起,前世的遗憾将通通弥补,前世的敌人将通通埋葬!

部分资源为软字幕,移动端推荐播放器:MxPlayer,nPlayer,infuse ,其他播放器请自行尝试。

部分资源为软字幕,电脑端推荐播放器:PotPlayer,完美解码,KMPLAYER,其他播放器请自行尝试。

##### MediaInfo ######
General
Complete name : 真武巅峰.The.Peak.of.True.Martial.Arts.S01E95.2021.2160p.WEB-DL.H265.AAC-DDHDTV.mp4
Duration : 9 min 47 s
Overall bit rate mode : Variable
Overall bit rate : 3 982 kb/s

Video
ID : 1
Format : HEVC
Format/Info : High Efficiency Video Coding
Format profile : Main@L5@Main
Codec ID : hev1
Codec ID/Info : High Efficiency Video Coding
Duration : 9 min 47 s
Bit rate : 3 786 kb/s
Width : 3 840 pixels
Height : 2 160 pixels
Display aspect ratio : 16:9
Frame rate mode : Constant
Frame rate : 25.000 FPS
Color space : YUV
Chroma subsampling : 4:2:0
Bit depth : 8 bits
Bits/(Pixel*Frame) : 0.018
Stream size : 265 MiB (95%)
Color range : Limited
Color primaries : BT.709
Transfer characteristics : BT.709
Matrix coefficients : BT.709
Codec configuration box : hvcC

Audio
ID : 2
Format : AAC LC
Format/Info : Advanced Audio Codec Low Complexity
Codec ID : mp4a-40-2
Duration : 9 min 47 s
Bit rate mode : Variable
Bit rate : 192 kb/s
Channel(s) : 2 channels
Channel layout : L R
Sampling rate : 44.1 kHz
Frame rate : 43.066 FPS (1024 SPF)
Compression mode : Lossy
Stream size : 13.3 MiB (5%)
Default : Yes
Alternate group : 1



#1楼
发帖时间:2023-12-07 22:15:54   |   回复数:0
游客组