BILL36
超凡入圣№

[2023] [美国] [剧情] [WEB-1080P] 圣诞老人快乐再疯狂 第二季[全6集][中文字幕].The.Santa.Clauses.S02.1080p.DSNP.WEB-DL.DDP.5.1.Atmos.H

-->

完整标题:圣诞老人快乐再疯狂 第二季[全6集][中文字幕].The.Santa.Clauses.S02.1080p.DSNP.WEB-DL.DDP.5.1.Atmos.H.264-BlackTV 9.07GB



◎标  题 圣诞老人快乐再疯狂 第二季
◎译  名 圣诞快乐又疯狂:退休计划(台) / 今个圣诞大件事:欢乐接班人(港) / 圣诞老人
◎片  名 The Santa Clauses Season 2
◎年  代 2023
◎产  地 美国
◎类  别 剧情 / 喜剧 / 奇幻
◎语  言 英语
◎IMDb链接 https://www.imdb.com/title/tt24465740/
◎豆瓣链接 https://movie.douban.com/subject/36187447/
◎编  剧 杰克·伯德特 Jack Burditt
      莱奥·本韦努蒂 Leo Benvenuti
      史蒂夫·鲁德尼克 Steve Rudnick
◎演  员 蒂姆·艾伦 Tim Allen
      伊丽莎白·米切尔 Elizabeth Mitchell
      Austin Kane
      Elizabeth Allen-Dick
      Mia Lynn Bangunan
      Isabella Bennett
      德文·布莱特 Devin Bright
      Kinley Cunningham
      鲁比·杰伊 Ruby Jay
      Gwendolyn Sorel Jones
      玛尔塔·蒂莫菲娃 Marta Timofeeva
      萨沙·奈特 Sasha Knight
      Liam Kyle
      马蒂尔达·劳勒 Matilda Lawler
      崔西·摩根 Tracy Morgan
      马塞尔·纳哈佩蒂安 Marcel Nahapetian
      劳拉·圣吉亚科莫 Laura San Giacomo
      艾瑞克·斯通斯崔特 Eric Stonestreet
      Phuc Thanh Huynh

部分资源为软字幕,移动端推荐播放器:MxPlayer,nPlayer,infuse ,其他播放器请自行尝试。

部分资源为软字幕,电脑端推荐播放器:PotPlayer,完美解码,KMPLAYER,其他播放器请自行尝试。

##### MediaInfo ######
General
Unique ID : 326255526024022708038056373266736974079 (0xF57287597B915D84D060B3DD9C0788FF)
Complete name : The.Santa.Clauses.S02E01.The.Kribble.Krabble.Clause.1080p.DSNP.WEB-DL.DDP.5.1.Atmos.H.264-BlackTV.mkv
Duration : 30 min 37 s
Overall bit rate mode : Variable
Overall bit rate : 6 756 kb/s

Video
ID : 1
Format : AVC
Format/Info : Advanced Video Codec
Format profile : High@L4
Format settings : CABAC / 4 Ref Frames
Format settings, CABAC : Yes
Format settings, Reference frames : 4 frames
Codec ID : V_MPEG4/ISO/AVC
Duration : 30 min 37 s
Bit rate mode : Variable
Bit rate : 5 982 kb/s
Maximum bit rate : 12.7 Mb/s
Width : 1 920 pixels
Height : 1 080 pixels
Display aspect ratio : 16:9
Frame rate mode : Constant
Frame rate : 23.976 (24000/1001) FPS
Color space : YUV
Chroma subsampling : 4:2:0
Bit depth : 8 bits
Scan type : Progressive
Bits/(Pixel*Frame) : 0.120
Stream size : 1.28 GiB (89%)
Language : English
Default : Yes
Forced : No
Color range : Limited
Color primaries : BT.709
Transfer characteristics : BT.709
Matrix coefficients : BT.709

Audio
ID : 2
Format : E-AC-3 JOC
Format/Info : Enhanced AC-3 with Joint Object Coding
Commercial name : Dolby Digital Plus with Dolby Atmos
Codec ID : A_EAC3
Duration : 30 min 37 s
Bit rate mode : Constant
Bit rate : 768 kb/s
Channel(s) : 6 channels
Channel layout : L R C LFE Ls Rs
Sampling rate : 48.0 kHz
Frame rate : 31.250 FPS (1536 SPF)
Compression mode : Lossy
Stream size : 168 MiB (11%)
Language : English
Service kind : Complete Main
Default : Yes
Forced : No
Complexity index : 16
Number of dynamic objects : 15
Bed channel count : 1 channel
Bed channel configuration : LFE

Text #1
ID : 3
Format : UTF-8
Codec ID : S_TEXT/UTF8
Codec ID/Info : UTF-8 Plain Text
Duration : 30 min 24 s
Bit rate : 114 b/s
Frame rate : 0.361 FPS
Count of elements : 659
Stream size : 25.4 KiB (0%)
Title : SDH
Language : English
Default : No
Forced : No

Text #2
ID : 4
Format : UTF-8
Codec ID : S_TEXT/UTF8
Codec ID/Info : UTF-8 Plain Text
Duration : 30 min 20 s
Bit rate : 88 b/s
Frame rate : 0.315 FPS
Count of elements : 574
Stream size : 19.7 KiB (0%)
Title : Traditional
Language : Chinese
Default : No
Forced : No

Text #3
ID : 5
Format : UTF-8
Codec ID : S_TEXT/UTF8
Codec ID/Info : UTF-8 Plain Text
Duration : 30 min 20 s
Bit rate : 82 b/s
Frame rate : 0.293 FPS
Count of elements : 533
Stream size : 18.4 KiB (0%)
Language : Czech
Default : No
Forced : No

Text #4
ID : 6
Format : UTF-8
Codec ID : S_TEXT/UTF8
Codec ID/Info : UTF-8 Plain Text
Duration : 30 min 20 s
Bit rate : 83 b/s
Frame rate : 0.313 FPS
Count of elements : 570
Stream size : 18.6 KiB (0%)
Language : Danish
Default : No
Forced : No

Text #5
ID : 7
Format : UTF-8
Codec ID : S_TEXT/UTF8
Codec ID/Info : UTF-8 Plain Text
Duration : 30 min 20 s
Bit rate : 87 b/s
Frame rate : 0.302 FPS
Count of elements : 550
Stream size : 19.5 KiB (0%)
Language : German
Default : No
Forced : No

Text #6
ID : 8
Format : UTF-8
Codec ID : S_TEXT/UTF8
Codec ID/Info : UTF-8 Plain Text
Duration : 30 min 20 s
Bit rate : 150 b/s
Frame rate : 0.300 FPS
Count of elements : 546
Stream size : 33.4 KiB (0%)
Language : Greek
Default : No
Forced : No

Text #7
ID : 9
Format : UTF-8
Codec ID : S_TEXT/UTF8
Codec ID/Info : UTF-8 Plain Text
Duration : 30 min 20 s
Bit rate : 82 b/s
Frame rate : 0.253 FPS
Count of elements : 460
Stream size : 18.3 KiB (0%)
Title : Latin America
Language : Spanish
Default : No
Forced : No

Text #8
ID : 10
Format : UTF-8
Codec ID : S_TEXT/UTF8
Codec ID/Info : UTF-8 Plain Text
Duration : 30 min 20 s
Bit rate : 86 b/s
Frame rate : 0.303 FPS
Count of elements : 551
Stream size : 19.1 KiB (0%)
Language : Spanish
Default : No
Forced : No

Text #9
ID : 11
Format : UTF-8
Codec ID : S_TEXT/UTF8
Codec ID/Info : UTF-8 Plain Text
Duration : 30 min 20 s
Bit rate : 79 b/s
Frame rate : 0.282 FPS
Count of elements : 513
Stream size : 17.8 KiB (0%)
Language : Finnish
Default : No
Forced : No

Text #10
ID : 12
Format : UTF-8
Codec ID : S_TEXT/UTF8
Codec ID/Info : UTF-8 Plain Text
Duration : 30 min 20 s
Bit rate : 100 b/s
Frame rate : 0.308 FPS
Count of elements : 561
Stream size : 22.2 KiB (0%)
Language : French
Default : No
Forced : No

Text #11
ID : 13
Format : UTF-8
Codec ID : S_TEXT/UTF8
Codec ID/Info : UTF-8 Plain Text
Duration : 30 min 20 s
Bit rate : 86 b/s
Frame rate : 0.253 FPS
Count of elements : 460
Stream size : 19.1 KiB (0%)
Language : Hungarian
Default : No
Forced : No

Text #12
ID : 14
Format : UTF-8
Codec ID : S_TEXT/UTF8
Codec ID/Info : UTF-8 Plain Text
Duration : 30 min 20 s
Bit rate : 78 b/s
Frame rate : 0.283 FPS
Count of elements : 515
Stream size : 17.4 KiB (0%)
Language : Italian
Default : No
Forced : No

Text #13
ID : 15
Format : UTF-8
Codec ID : S_TEXT/UTF8
Codec ID/Info : UTF-8 Plain Text
Duration : 30 min 20 s
Bit rate : 77 b/s
Frame rate : 0.297 FPS
Count of elements : 540
Stream size : 17.3 KiB (0%)
Language : Japanese
Default : No
Forced : No

Text #14
ID : 16
Format : UTF-8
Codec ID : S_TEXT/UTF8
Codec ID/Info : UTF-8 Plain Text
Duration : 30 min 20 s
Bit rate : 95 b/s
Frame rate : 0.315 FPS
Count of elements : 574
Stream size : 21.2 KiB (0%)
Language : Korean
Default : No
Forced : No

Text #15
ID : 17
Format : UTF-8
Codec ID : S_TEXT/UTF8
Codec ID/Info : UTF-8 Plain Text
Duration : 30 min 20 s
Bit rate : 82 b/s
Frame rate : 0.229 FPS
Count of elements : 416
Stream size : 18.3 KiB (0%)
Language : Dutch
Default : No
Forced : No

Text #16
ID : 18
Format : UTF-8
Codec ID : S_TEXT/UTF8
Codec ID/Info : UTF-8 Plain Text
Duration : 30 min 20 s
Bit rate : 83 b/s
Frame rate : 0.296 FPS
Count of elements : 539
Stream size : 18.6 KiB (0%)
Language : Norwegian
Default : No
Forced : No

Text #17
ID : 19
Format : UTF-8
Codec ID : S_TEXT/UTF8
Codec ID/Info : UTF-8 Plain Text
Duration : 30 min 20 s
Bit rate : 78 b/s
Frame rate : 0.305 FPS
Count of elements : 555
Stream size : 17.5 KiB (0%)
Language : Polish
Default : No
Forced : No

Text #18
ID : 20
Format : UTF-8
Codec ID : S_TEXT/UTF8
Codec ID/Info : UTF-8 Plain Text
Duration : 30 min 20 s
Bit rate : 87 b/s
Frame rate : 0.292 FPS
Count of elements : 532
Stream size : 19.5 KiB (0%)
Title : Brazil
Language : Portuguese
Default : No
Forced : No

Text #19
ID : 21
Format : UTF-8
Codec ID : S_TEXT/UTF8
Codec ID/Info : UTF-8 Plain Text
Duration : 30 min 20 s
Bit rate : 89 b/s
Frame rate : 0.313 FPS
Count of elements : 569
Stream size : 19.9 KiB (0%)
Language : Portuguese
Default : No
Forced : No

Text #20
ID : 22
Format : UTF-8
Codec ID : S_TEXT/UTF8
Codec ID/Info : UTF-8 Plain Text
Duration : 28 min 50 s
Bit rate : 91 b/s
Frame rate : 0.274 FPS
Count of elements : 474
Stream size : 19.2 KiB (0%)
Language : Romanian
Default : No
Forced : No

Text #21
ID : 23
Format : UTF-8
Codec ID : S_TEXT/UTF8
Codec ID/Info : UTF-8 Plain Text
Duration : 30 min 20 s
Bit rate : 88 b/s
Frame rate : 0.310 FPS
Count of elements : 564
Stream size : 19.6 KiB (0%)
Language : Slovak
Default : No
Forced : No

Text #22
ID : 24
Format : UTF-8
Codec ID : S_TEXT/UTF8
Codec ID/Info : UTF-8 Plain Text
Duration : 30 min 20 s
Bit rate : 89 b/s
Frame rate : 0.314 FPS
Count of elements : 571
Stream size : 19.8 KiB (0%)
Language : Swedish
Default : No
Forced : No

Text #23
ID : 25
Format : UTF-8
Codec ID : S_TEXT/UTF8
Codec ID/Info : UTF-8 Plain Text
Duration : 30 min 20 s
Bit rate : 98 b/s
Frame rate : 0.311 FPS
Count of elements : 566
Stream size : 21.8 KiB (0%)
Language : Turkish
Default : No
Forced : No

Menu
00:00:04.004 : en:Recap
00:01:15.200 : en:Scene 1
00:04:25.307 : en:Intro
00:04:39.947 : en:Scene 2
00:08:56.078 : en:Scene 3
00:25:11.803 : en:Scene 4
00:28:41.138 : en:Credits




1 个附件 售价 大小 下载 时间

The.Santa.Clauses.S02.1080p.DSNP.WEB-DL.DDP.5.1.Atmos.H.264-BlackTV[1LOU.ME].torrent 0 金币 26.08K 182 次 2月前

#1楼
发帖时间:2023-12-06 22:12:11   |   回复数:0
游客组