BILL36
超凡入圣№

[2023] [大陆] [剧情] [WEB-4K] 欢迎来到麦乐村[高码版][第25-26集][国语配音/中文字幕].Welcome.To.Milele.S01.2023.2160p.HQ.WEB-DL.H265

-->

完整标题:欢迎来到麦乐村[高码版][第25-26集][国语配音/中文字幕].Welcome.To.Milele.S01.2023.2160p.HQ.WEB-DL.H265.AAC-BlackTV 12.67GB



◎标  题 欢迎来到麦乐村
◎年  代 2023
◎产  地 中国大陆
◎类  别 剧情
◎语  言 汉语普通话
◎IMDb链接 https://www.imdb.com/title/tt27951213/
◎豆瓣链接 https://movie.douban.com/subject/36217766/
◎导  演 金晔 Ye Jin
◎编  剧 梁振华 Zhenhua Liang
      胡雅婷 Yating Hu
      张显
◎演  员 靳东 Dong Jin
      祖峰 Feng Zu
      张雨绮 Yuqi Zhang
      刘冠麟 Guanlin Liu
      刘敏涛 Mintao Liu
      丁勇岱 Yongdai Ding
      赵子琪 Ziqi Zhao
      王梓权 Kaavie Wong
      何洛洛 Luoluo He
      王圣迪 Shengdi Wang
      邹德江 Dejiang Zou
      周知 Zhi Zhou
      宁心 Xin Ning
      彭博 Bo Peng
      刘佳 Jia Liu
      丁柳元 Liuyuan Ding
      岳旸 Yang Yue
      黄澄澄 Chengcheng Huang
      天使 Kawawa Kadichi
      托马斯·菲凯 Thomas Fiquet
      蔡明凯 Mekael Turner
      康佳

◎简  介
    一片神奇美妙的土地,一段欢腾难忘的时光,一群可亲可爱的医者,一程百感交集的成长。该剧以诙谐欢乐的风格,展现中国援外医疗队员演绎医者仁心的非凡历程;也还原一幅异国他乡中国同胞历酸甜苦辣、解生活真经的烟火画卷。

部分资源为软字幕,移动端推荐播放器:MxPlayer,nPlayer,infuse ,其他播放器请自行尝试。

部分资源为软字幕,电脑端推荐播放器:PotPlayer,完美解码,KMPLAYER,其他播放器请自行尝试。

##### MediaInfo ######
General
Complete name : Welcome.To.Milele.S01E25.2023.2160p.HQ.WEB-DL.H265.AAC-BlackTV.mp4
Duration : 45 min 14 s
Overall bit rate mode : Variable
Overall bit rate : 20.1 Mb/s

Video
ID : 1
Format : HEVC
Format/Info : High Efficiency Video Coding
Format profile : Main [email protected]@Main
Codec ID : hev1
Codec ID/Info : High Efficiency Video Coding
Duration : 45 min 14 s
Bit rate : 19.8 Mb/s
Width : 3 840 pixels
Height : 2 160 pixels
Display aspect ratio : 16:9
Frame rate mode : Constant
Frame rate : 25.000 FPS
Color space : YUV
Chroma subsampling : 4:2:0
Bit depth : 10 bits
Bits/(Pixel*Frame) : 0.096
Stream size : 6.27 GiB (99%)
Color range : Limited
Color primaries : BT.709
Transfer characteristics : BT.709
Matrix coefficients : BT.709
Codec configuration box : hvcC

Audio
ID : 2
Format : AAC LC
Format/Info : Advanced Audio Codec Low Complexity
Codec ID : mp4a-40-2
Duration : 45 min 14 s
Bit rate mode : Variable
Bit rate : 258 kb/s
Channel(s) : 2 channels
Channel layout : L R
Sampling rate : 44.1 kHz
Frame rate : 43.066 FPS (1024 SPF)
Compression mode : Lossy
Stream size : 82.8 MiB (1%)
Default : Yes
Alternate group : 1


点击图片可查看大图

软字幕无法在截图上展现,HDR版本/杜比视界版本截图会出现颜色异常,请使用支持的设备播放!



1 个附件 售价 大小 下载 时间

Welcome.To.Milele.S01.2023.2160p.HQ.WEB-DL.H265.AAC-BlackTV[1LOU.ME].torrent 0 金币 34.54K 189 次 2月前

#1楼
发帖时间:2023-12-06 13:02:07   |   回复数:0
游客组