BILL36
超凡入圣№

[2023] [日本] [动画] [HDTV/HDrip] 勇者赫鲁库[第22集][中文字幕].Helck.S01.2023.1080p.WEB-DL.H264.AAC-DDHDTV 0.30GB

-->

完整标题:勇者赫鲁库[第22集][中文字幕].Helck.S01.2023.1080p.WEB-DL.H264.AAC-DDHDTV 0.30GB



◎标  题 勇者赫鲁库
◎译  名 ヘルク
◎片  名 Helck
◎年  代 2023
◎产  地 日本
◎类  别 动画
◎语  言 日语
◎IMDb评分 6.7/10 (131人评价)
◎IMDb链接 https://www.imdb.com/title/tt26688817/
◎豆瓣评分 7.4/10 (766人评价)
◎豆瓣链接 https://movie.douban.com/subject/35770923/
◎导  演 佐藤龙雄 Tatsuo Sato
      石山贵明 Takaaki Ishiyama
      大和直道 Yamato Naomichi
      饭村正之 Iimura Masayuki
      则座诚 Sokuza Makoto
◎编  剧 根元岁三 Nemoto Toshizou
      广田光毅 Mitsutaka Hirota
◎演  员 小西克幸 Katsuyuki Konishi
      中岛卓也 Nakashima Takuya
      七海弘希 Hiroki Nanami
      小松未可子 Mikako Komatsu
      德井青空 Sora Tokui
      森岛秀太 Morishima Shuuta
      松冈祯丞 Yoshitsugu Matsuoka
      井泽诗织 Shiori Izawa
      丹羽哲士 Niwa Satoshi
      石田彰 Akira Ishida
      小野元春 Ono Motoharu
      青木志贵 Aoki Shiki
      近藤玲奈 Reina Kondou
      白石晴香 Shiraishi Haruka
      宫内敦士 Atsushi Miyauchi
      吉野裕行 Hiroyuki Yoshino
      平川大辅 Daisuke Hirakawa
      前田玲奈 Rena Maeda
      花守由美里 Yumiri Hanamori

◎简  介
    魔界的某个国家,勇者凭借一己之力击败了魔王。   “已经不用为魔王的事情而担心了!”在人类为此洋溢笑容的同时,魔界中争夺新王位的战斗正在火热展开着!   但是没想到出现在赛场上的是……?   迷之勇者赫鲁库的大冒险剧就此开幕!

部分资源为软字幕,移动端推荐播放器:MxPlayer,nPlayer,infuse ,其他播放器请自行尝试。

部分资源为软字幕,电脑端推荐播放器:PotPlayer,完美解码,KMPLAYER,其他播放器请自行尝试。

##### MediaInfo ######
General
Complete name : Helck.S01E22.2023.1080p.WEB-DL.H264.AAC-DDHDTV.mp4
Duration : 22 min 55 s
Overall bit rate : 1 886 kb/s

Video
ID : 1
Format : AVC
Format/Info : Advanced Video Codec
Format profile : High@L5
Format settings : CABAC / 8 Ref Frames
Format settings, CABAC : Yes
Format settings, Reference frames : 8 frames
Codec ID : avc1
Codec ID/Info : Advanced Video Coding
Duration : 22 min 54 s
Bit rate : 1 701 kb/s
Width : 1 920 pixels
Height : 1 080 pixels
Display aspect ratio : 16:9
Frame rate mode : Variable
Frame rate : 23.976 (24000/1001) FPS
Minimum frame rate : 23.810 FPS
Maximum frame rate : 24.390 FPS
Color space : YUV
Chroma subsampling : 4:2:0
Bit depth : 8 bits
Scan type : Progressive
Bits/(Pixel*Frame) : 0.034
Stream size : 279 MiB (90%)
Color range : Limited
Color primaries : BT.709
Transfer characteristics : BT.709
Matrix coefficients : BT.709
Codec configuration box : avcC

Audio
ID : 2
Format : AAC LC
Format/Info : Advanced Audio Codec Low Complexity
Codec ID : mp4a-40-2
Duration : 22 min 55 s
Bit rate mode : Constant
Bit rate : 178 kb/s
Channel(s) : 2 channels
Channel layout : L R
Sampling rate : 48.0 kHz
Frame rate : 46.875 FPS (1024 SPF)
Compression mode : Lossy
Stream size : 29.2 MiB (9%)
Default : Yes
Alternate group : 1


点击图片可查看大图

软字幕无法在截图上展现,HDR版本/杜比视界版本截图会出现颜色异常,请使用支持的设备播放!



1 个附件 售价 大小 下载 时间

Helck.S01.2023.1080p.WEB-DL.H264.AAC-DDHDTV[1LOU.ME].torrent 0 金币 3.46K 84 次 2月前

#1楼
发帖时间:2023-12-06 12:52:09   |   回复数:0
游客组