BILL36
超凡入圣№

[2023] [大陆] [剧情] [WEB-4K] 似火流年[高码版][第29集][国语配音/中文字幕].Burning.Years.S01.2023.2160p.HQ.WEB-DL.H265.AAC-Black

-->

完整标题:似火流年[高码版][第29集][国语配音/中文字幕].Burning.Years.S01.2023.2160p.HQ.WEB-DL.H265.AAC-BlackTV 5.22GB



◎标  题 似火流年
◎译  名 北京往事
◎年  代 2023
◎产  地 中国大陆
◎类  别 剧情
◎语  言 汉语普通话
◎IMDb链接 https://www.imdb.com/title//
◎豆瓣链接 https://movie.douban.com/subject/30311925/
◎导  演 韩晓邯 Xiaohan Han
◎编  剧 修梦迪 Mengdi Xiu
      韩晓邯 Xiaohan Han
◎演  员 韩东君 Elvis Han
      贾弘逍 Hongxiao Jia
      张宥浩 Youhao Zhang
      甘昀宸 Yunchen Gan
      马藜 Li Ma
      刘洋 Yang Liu
      张耀宇 Yaoyu Zhang
      吴晓亮 Xiaoliang Wu
      谢园 Yuan Xie
      刘佩琦 Peiqi Liu
      杜志国 Zhiguo Du
      杜旭东 Xudong Du
      姚橹 Lu Yao
      梁天 Tian Liang
      王姬 Ji Wang
      龚蓓苾 Beibi Gong

◎简  介
    该剧讲述了性格迥异的四位发小徐卫彪、林志华、汪磊、张鹏在时代变革中由于各自不同的选择走上不同道路,昔日挚友站在不同的对立面,最终分道扬镳的故事。

部分资源为软字幕,移动端推荐播放器:MxPlayer,nPlayer,infuse ,其他播放器请自行尝试。

部分资源为软字幕,电脑端推荐播放器:PotPlayer,完美解码,KMPLAYER,其他播放器请自行尝试。

##### MediaInfo ######
General
Complete name : Burning.Years.S01E29.2023.2160p.HQ.WEB-DL.H265.AAC-BlackTV.mp4
Duration : 37 min 18 s
Overall bit rate mode : Variable
Overall bit rate : 20.0 Mb/s

Video
ID : 1
Format : HEVC
Format/Info : High Efficiency Video Coding
Format profile : Main [email protected]@Main
Codec ID : hev1
Codec ID/Info : High Efficiency Video Coding
Duration : 37 min 18 s
Bit rate : 19.8 Mb/s
Width : 3 840 pixels
Height : 2 080 pixels
Display aspect ratio : 1.85:1
Frame rate mode : Constant
Frame rate : 25.000 FPS
Color space : YUV
Chroma subsampling : 4:2:0
Bit depth : 10 bits
Bits/(Pixel*Frame) : 0.099
Stream size : 5.15 GiB (99%)
Color range : Limited
Color primaries : BT.709
Transfer characteristics : BT.709
Matrix coefficients : BT.709
Codec configuration box : hvcC

Audio
ID : 2
Format : AAC LC
Format/Info : Advanced Audio Codec Low Complexity
Codec ID : mp4a-40-2
Duration : 37 min 18 s
Bit rate mode : Variable
Bit rate : 256 kb/s
Maximum bit rate : 260 kb/s
Channel(s) : 2 channels
Channel layout : L R
Sampling rate : 44.1 kHz
Frame rate : 43.066 FPS (1024 SPF)
Compression mode : Lossy
Stream size : 68.3 MiB (1%)
Default : Yes
Alternate group : 1


点击图片可查看大图

软字幕无法在截图上展现,HDR版本/杜比视界版本截图会出现颜色异常,请使用支持的设备播放!



1 个附件 售价 大小 下载 时间

Burning.Years.S01.2023.2160p.HQ.WEB-DL.H265.AAC-BlackTV[1LOU.ME].torrent 0 金币 15.80K 329 次 2月前

#1楼
发帖时间:2023-12-05 23:39:57   |   回复数:0
游客组