BILL36
超凡入圣№

[2023] [韩国] [剧情] [WEB-1080P] 婚礼大捷[第10集][中文字幕].The.Matchmakers.S01.1080p.Linetv.WEB-DL.AAC2.0.H.264-BlackTV 1.

-->

完整标题:婚礼大捷[第10集][中文字幕].The.Matchmakers.S01.1080p.Linetv.WEB-DL.AAC2.0.H.264-BlackTV 1.64GB



◎标  题 婚礼大捷
◎译  名 너에게 나를 보낸다
◎片  名 혼례대첩
◎年  代 2023
◎产  地 韩国
◎类  别 剧情 / 喜剧 / 爱情 / 古装
◎语  言 韩语
◎IMDb链接 https://www.imdb.com/title//
◎豆瓣链接 https://movie.douban.com/subject/36228075/
◎导  演 黄昇基 Seung-gi Hwang
◎编  剧 何秀真 Soo-jin Ha
◎演  员 金路云 Rowoon
      赵怡贤 Yi-hyun Cho
      朴智英 Park Ji-yeong
      赵汉哲 Han-chul Jo
      李海荣 Hae-yeong Lee
      崔熙真 Choi Hee Jin
      陈熙琼 Hee-kyung Jin
      郑信惠 Jung Shin Hye
      朴智元 Park Ji-won
      郑宝美 Ji-min Jung
      吴艺珠 Oh Ye Ju
      朴奂喜 Hwan-hi Park
      许南俊 NamJun Ho
      孙相渊 Sang-yeon Son
      崔京勋 Kyung-hyun Choi
      姜东浩 Dong-ho Kang
      徐进元 Jin-won Seo
      郑胜吉 Seung-gil Jeong
      李淳元 Soon-won Lee
      禹贤珠 Woo Hyun Joo
      朴贤贞 Hyun-Jung Park
      金佳英 Ga-young Kim
      金贤穆 Kim Hyun-mok
      方恩晶 Eun-jung Bang

◎简  介
    《把我送给你》是一部历史剧,讲述了朝鲜时代的年轻寡妇和年轻鳏夫相遇后展开的"剩女、矿工的婚礼大作战"。年轻寡妇郑顺德与汉阳最郁愤的男青年沈郑宇齐心协力为4名朝鲜代表性的剩女匹配婚约的是孤军奋战的喜剧爱情片。   路云将饰演汉阳最郁愤的男子沈郑宇。沈郑宇拥有清醒的头脑和让人无 法不回头看的天生帅气的外貌。但是,他并不谦逊。在17岁那年,他偏偏被公主看中,成为了驸马。但是因为公主在婚礼中晕倒,他只得在17岁就变成了年轻鳏夫。公主的丧事结束后,他每天都在以“请把我与公主的婚姻判为无效。请把我这样优秀的人才用在国事上吧"的内容上诉。之后受王的指派,投身到了让剩女们嫁出去的的做媒行业中。   赵伊贤饰演晚上是北村儿媳,白天是房货商贩,过着双重生活的年轻寡妇郑顺德。 郑顺德不仅涉猎恋爱小说,还偷偷学习武术、拥有无人能及的越墙和跑步实力。虽然命运注定会成为剩女,却出乎所有人的预料,22岁就结婚了。 但是郑顺德丈夫在结婚半年后患病,然后过世了,于是郑顺德成为了年轻寡妇。

部分资源为软字幕,移动端推荐播放器:MxPlayer,nPlayer,infuse ,其他播放器请自行尝试。

部分资源为软字幕,电脑端推荐播放器:PotPlayer,完美解码,KMPLAYER,其他播放器请自行尝试。

##### MediaInfo ######
General
Unique ID : 182782174020034990932067953009056540299 (0x898290F41762A50F709AB39C2F0BE68B)
Complete name : The.Matchmakers.S01E10.1080p.Linetv.WEB-DL.AAC2.0.H.264-BlackTV.mp4
Duration : 1 h 4 min
Overall bit rate mode : Variable
Overall bit rate : 3 632 kb/s

Video
ID : 1
Format : AVC
Format/Info : Advanced Video Codec
Format profile : High@L4
Format settings : CABAC / 3 Ref Frames
Format settings, CABAC : Yes
Format settings, Reference frames : 3 frames
Codec ID : V_MPEG4/ISO/AVC
Duration : 1 h 4 min
Bit rate mode : Variable
Bit rate : 3 504 kb/s
Maximum bit rate : 9 000 kb/s
Width : 1 920 pixels
Height : 1 080 pixels
Display aspect ratio : 16:9
Frame rate mode : Constant
Frame rate : 29.970 (30000/1001) FPS
Color space : YUV
Chroma subsampling : 4:2:0
Bit depth : 8 bits
Scan type : Progressive
Bits/(Pixel*Frame) : 0.056
Stream size : 1.58 GiB (96%)
Default : Yes
Forced : No
Color range : Limited
Color primaries : BT.709
Transfer characteristics : BT.709
Matrix coefficients : BT.709

Audio
ID : 2
Format : AAC LC
Format/Info : Advanced Audio Codec Low Complexity
Codec ID : A_AAC-2
Duration : 1 h 4 min
Bit rate : 125 kb/s
Channel(s) : 2 channels
Channel layout : L R
Sampling rate : 48.0 kHz
Frame rate : 46.875 FPS (1024 SPF)
Compression mode : Lossy
Delay relative to video : -33 ms
Stream size : 57.9 MiB (3%)
Language : English
Default : Yes
Forced : No

Text #1
ID : 3
Format : UTF-8
Codec ID : S_TEXT/UTF8
Codec ID/Info : UTF-8 Plain Text
Duration : 1 h 4 min
Bit rate : 42 b/s
Frame rate : 0.189 FPS
Count of elements : 727
Stream size : 19.8 KiB (0%)
Title : Traditional
Language : Chinese
Default : Yes
Forced : No

Text #2
ID : 4
Format : UTF-8
Codec ID : S_TEXT/UTF8
Codec ID/Info : UTF-8 Plain Text
Duration : 1 h 4 min
Bit rate : 42 b/s
Frame rate : 0.189 FPS
Count of elements : 727
Stream size : 19.8 KiB (0%)
Title : Simplified
Language : Chinese
Default : No
Forced : No


点击图片可查看大图

软字幕无法在截图上展现,HDR版本/杜比视界版本截图会出现颜色异常,请使用支持的设备播放!



1 个附件 售价 大小 下载 时间

The.Matchmakers.S01.1080p.Linetv.WEB-DL.AAC2.0.H.264-BlackTV[1LOU.ME].torrent 0 金币 6.82K 147 次 2月前

#1楼
发帖时间:2023-12-05 23:37:14   |   回复数:0
游客组