BILL36
超凡入圣№

[2023] [韩国] [剧情] [WEB-1080P] 完美婚姻的定式[全12集][简繁英字幕].Perfect.Marriage.Revenge.S01.1080p.Viu.WEB-DL.AAC2.0.H.264-

-->

完整标题:完美婚姻的定式[全12集][简繁英字幕].Perfect.Marriage.Revenge.S01.1080p.Viu.WEB-DL.AAC2.0.H.264-BlackTV 11.88GB



◎标  题 完美婚姻的定式
◎译  名 完美婚姻的标准 / A Perfect Marriage
◎片  名 완벽한 결혼의 정석
◎年  代 2023
◎产  地 韩国
◎类  别 剧情 / 爱情
◎语  言 韩语
◎IMDb链接 https://www.imdb.com/title//
◎豆瓣链接 https://movie.douban.com/subject/36524605/
◎导  演 吴尚元 Sang Won Oh
◎演  员 成勋 Sung Hoon
      郑侑敏 Yoo-min Jung
      姜新孝 Shin-hyo Kang
      陈智熙 Ji-hee Jin
      李敏英 Min-young Lee

◎简  介
    是根据2019年NAVER地上最大征集活动最优秀奖获奖作品,累计下载量突破900万次,人气很高的同名网络小说改编的电视剧。为了报复丈夫和家人而选择签约结婚的女人韩伊珠和为了娶她为妻而推迟签约结婚的男人徐道国惊险而隐秘的“回归罗曼史复仇剧”。

部分资源为软字幕,移动端推荐播放器:MxPlayer,nPlayer,infuse ,其他播放器请自行尝试。

部分资源为软字幕,电脑端推荐播放器:PotPlayer,完美解码,KMPLAYER,其他播放器请自行尝试。

##### MediaInfo ######
General
Unique ID : 337120135602405177083569659552755612799 (0xFD9EF9F56EC5448E4F8482D78BF3FC7F)
Complete name : Perfect.Marriage.Revenge.S01E01.1080p.Viu.WEB-DL.AAC2.0.H.264-BlackTV.mkv
Duration : 1 h 17 min
Overall bit rate mode : Variable
Overall bit rate : 2 278 kb/s

Video
ID : 1
Format : AVC
Format/Info : Advanced Video Codec
Format profile : [email protected]
Format settings : CABAC / 4 Ref Frames
Format settings, CABAC : Yes
Format settings, Reference frames : 4 frames
Codec ID : V_MPEG4/ISO/AVC
Duration : 1 h 17 min
Bit rate mode : Variable
Bit rate : 2 179 kb/s
Maximum bit rate : 4 500 kb/s
Width : 1 920 pixels
Height : 1 080 pixels
Display aspect ratio : 16:9
Frame rate mode : Constant
Frame rate : 29.970 (30000/1001) FPS
Original frame rate : 29.970 (29970/1000) FPS
Color space : YUV
Chroma subsampling : 4:2:0
Bit depth : 8 bits
Scan type : Progressive
Bits/(Pixel*Frame) : 0.035
Stream size : 1.18 GiB (96%)
Writing library : VOLO1.4.1
Default : Yes
Forced : No

Audio
ID : 2
Format : AAC LC
Format/Info : Advanced Audio Codec Low Complexity
Codec ID : A_AAC-2
Duration : 1 h 17 min
Bit rate : 96.0 kb/s
Channel(s) : 2 channels
Channel layout : L R
Sampling rate : 48.0 kHz
Frame rate : 46.875 FPS (1024 SPF)
Compression mode : Lossy
Delay relative to video : -42 ms
Stream size : 53.1 MiB (4%)
Default : Yes
Forced : No

Text #1
ID : 3
Format : UTF-8
Codec ID : S_TEXT/UTF8
Codec ID/Info : UTF-8 Plain Text
Duration : 1 h 16 min
Bit rate : 51 b/s
Frame rate : 0.225 FPS
Count of elements : 1038
Stream size : 29.0 KiB (0%)
Title : English
Language : English
Default : No
Forced : No

Text #2
ID : 4
Format : UTF-8
Codec ID : S_TEXT/UTF8
Codec ID/Info : UTF-8 Plain Text
Duration : 1 h 15 min
Bit rate : 46 b/s
Frame rate : 0.242 FPS
Count of elements : 1096
Stream size : 25.7 KiB (0%)
Title : Simplified
Language : Chinese
Default : No
Forced : No

Text #3
ID : 5
Format : UTF-8
Codec ID : S_TEXT/UTF8
Codec ID/Info : UTF-8 Plain Text
Duration : 1 h 15 min
Bit rate : 46 b/s
Frame rate : 0.242 FPS
Count of elements : 1096
Stream size : 25.7 KiB (0%)
Title : Traditional
Language : Chinese
Default : Yes
Forced : No


点击图片可查看大图

软字幕无法在截图上展现,HDR版本/杜比视界版本截图会出现颜色异常,请使用支持的设备播放!



1 个附件 售价 大小 下载 时间

Perfect.Marriage.Revenge.S01.1080p.Viu.WEB-DL.AAC2.0.H.264-BlackTV[1LOU.ME].torrent 0 金币 33.60K 686 次 2月前

#1楼
发帖时间:2023-12-05 23:33:45   |   回复数:0
游客组