BILL36
超凡入圣№

[2023] [大陆] [剧情] [WEB-4K] 对你不止是喜欢[第17集][国语配音/中文字幕].I.May.Love.You.S01.2023.2160p.WEB-DL.H265.DDP2.0-DDHDTV

-->

完整标题:对你不止是喜欢[第17集][国语配音/中文字幕].I.May.Love.You.S01.2023.2160p.WEB-DL.H265.DDP2.0-DDHDTV 0.58GB



◎标  题 对你不止是喜欢
◎年  代 2023
◎产  地 中国大陆
◎类  别 剧情 / 爱情
◎语  言 汉语普通话
◎IMDb链接 https://www.imdb.com/title//
◎豆瓣链接 https://movie.douban.com/subject/35750094/
◎导  演 刘栋 Dong Liu
◎编  剧 郝茹 Ru Hao
      辛晓阳 Xiaoyang Xin
      孙梦洁 Satan.D
◎演  员 魏哲鸣 Zheming Wei
      黄日莹 Riying Huang
      杨仕泽 Shize Yang
      张沐兮 Muxi Zhang
      范津玮 Jinwei Fan
      何雨虹 Yuhong He
      韩秋池 Qiuchi Han
      王成 Cheng Wang
      陈博豪 Bohao Chen
      李嫣晗 Yanhan Li
      冷海铭 Marco Leng
      韩姝妹 Shumei Han

◎简  介
    改编自晋江文学城陌言川同名小说《对你不止是喜欢》。   讲述傲娇制片人唐域(魏哲鸣 饰)和鬼马新人编剧唐馨(黄日莹 饰)的暗恋故事。当一场旷日持久的暗恋遇上阴差阳错的甜蜜相处,在小说和电影行业工作的他们如何开启爱情角力?禁欲系冷面总裁如何浪漫追妻,古灵精怪小编剧又将如何追求梦想?这场棋逢对手的爱情故事即将开启,一场双向奔赴的多糖之旅即将启程。

部分资源为软字幕,移动端推荐播放器:MxPlayer,nPlayer,infuse ,其他播放器请自行尝试。

部分资源为软字幕,电脑端推荐播放器:PotPlayer,完美解码,KMPLAYER,其他播放器请自行尝试。

##### MediaInfo ######
General
Unique ID : 201549240109752328602017809600134420321 (0x97A0F8BFFE4E2F9BD2FB4D4F3FC29761)
Complete name : 对你不止是喜欢.I.May.Love.You.S01E17.2023.2160p.WEB-DL.H265.DDP2.0-DDHDTV.mkv
Duration : 45 min 59 s
Overall bit rate : 1 807 kb/s

Video
ID : 1
Format : HEVC
Format/Info : High Efficiency Video Coding
Format profile : Main@L5@Main
Codec ID : V_MPEGH/ISO/HEVC
Duration : 45 min 59 s
Bit rate : 1 424 kb/s
Width : 3 840 pixels
Height : 2 160 pixels
Display aspect ratio : 16:9
Frame rate mode : Constant
Frame rate : 25.000 FPS
Color space : YUV
Chroma subsampling : 4:2:0
Bit depth : 8 bits
Bits/(Pixel*Frame) : 0.007
Stream size : 468 MiB (79%)
Writing library : Tencent-V265-1.6.9.1-p1k184g16lh64f4ra1.
Default : Yes
Forced : No
Color range : Limited
Color primaries : BT.709
Transfer characteristics : BT.709
Matrix coefficients : BT.709

Audio #1
ID : 2
Format : E-AC-3
Format/Info : Enhanced AC-3
Commercial name : Dolby Digital Plus
Codec ID : A_EAC3
Duration : 45 min 59 s
Bit rate mode : Constant
Bit rate : 256 kb/s
Channel(s) : 2 channels
Channel layout : L R
Sampling rate : 48.0 kHz
Frame rate : 31.250 FPS (1536 SPF)
Compression mode : Lossy
Delay relative to video : -42 ms
Stream size : 84.2 MiB (14%)
Title : Mandarin
Language : Chinese
Service kind : Complete Main
Default : Yes
Forced : No

Audio #2
ID : 3
Format : AAC LC
Format/Info : Advanced Audio Codec Low Complexity
Codec ID : A_AAC-2
Duration : 45 min 59 s
Bit rate : 125 kb/s
Channel(s) : 2 channels
Channel layout : L R
Sampling rate : 48.0 kHz
Frame rate : 46.875 FPS (1024 SPF)
Compression mode : Lossy
Delay relative to video : -42 ms
Stream size : 41.2 MiB (7%)
Title : Mandarin
Language : Chinese
Default : No
Forced : No


点击图片可查看大图

软字幕无法在截图上展现,HDR版本/杜比视界版本截图会出现颜色异常,请使用支持的设备播放!



1 个附件 售价 大小 下载 时间

I.May.Love.You.S01.2023.2160p.WEB-DL.H265.DDP2.0-DDHDTV[1LOU.ME].torrent 0 金币 4.21K 203 次 2月前

#1楼
发帖时间:2023-12-05 20:40:38   |   回复数:0
游客组