BILL36
超凡入圣№

[2019] [大陆] [其它] [HDTV/HDrip] 人生一串 第二季[全6集][国语配音/中文字幕].The.Story.Of.Chuaner.S02.2019.1080p.WEB-DL.H264.AAC-DDH

-->

完整标题:人生一串 第二季[全6集][国语配音/中文字幕].The.Story.Of.Chuaner.S02.2019.1080p.WEB-DL.H264.AAC-DDHDTV 11.34GB



◎标  题 人生一串 第二季
◎年  代 2019
◎产  地 中国大陆
◎类  别 纪录片
◎语  言 汉语普通话
◎IMDb评分 8/10 (7人评价)
◎IMDb链接 https://www.imdb.com/title/tt10628706/
◎豆瓣评分 8.5/10 (49872人评价)
◎豆瓣链接 https://movie.douban.com/subject/33437160/
◎导  演 陈英杰 Yingjie Chen
      张岳明 Yueming Zhang
      金颖 Ying Jin
      赵怀燕 Huaiyan Zhao
      郭瀚洋 Hanhai Guo
      谷壮 Zhuang Gu
      刘执戈 Zhige Liu
◎编  剧 陈英杰 Yingjie Chen
      张岳明 Yueming Zhang
◎演  员 陈英杰 Yingjie Chen

◎简  介
    纪录片《人生一串》是由哔哩哔哩和旗帜传媒 联合出品的国内首档呈现国人烧烤情结的专题片,以展现全国各地独具特色的烧烤文化为主题。与以往的烧烤节目不同,《人生一串》极具市井气息,把镜头从庙堂拉至寻常摊铺,真实地去展现烧烤的乐天内涵与江湖风味。   第二季在形式和风格上保持不变,延续食欲烧烤、烟嗓旁白、百万文案及烟火故事,挖掘天南海北的烧烤宝藏,讲述那些发生在深夜平凡却动人的故事,带领观众去探寻街角巷尾的饕餮盛宴、美食人情。   《人生一串2》将带来更密集炸裂的烧烤美食、更意想不到的叙事结构、更地道的市井讲究。

部分资源为软字幕,移动端推荐播放器:MxPlayer,nPlayer,infuse ,其他播放器请自行尝试。

部分资源为软字幕,电脑端推荐播放器:PotPlayer,完美解码,KMPLAYER,其他播放器请自行尝试。

##### MediaInfo ######
General
Complete name : 人生一串.第二季.The.Story.Of.Chuaner.S02E01.2019.1080p.WEB-DL.H264.AAC-DDHDTV.mp4
Duration : 43 min 29 s
Overall bit rate : 5 576 kb/s

Video
ID : 1
Format : AVC
Format/Info : Advanced Video Codec
Format profile : High@L5
Format settings : CABAC / 6 Ref Frames
Format settings, CABAC : Yes
Format settings, Reference frames : 6 frames
Codec ID : avc1
Codec ID/Info : Advanced Video Coding
Duration : 43 min 29 s
Bit rate : 5 249 kb/s
Width : 1 920 pixels
Height : 1 080 pixels
Display aspect ratio : 16:9
Frame rate mode : Constant
Frame rate : 25.000 FPS
Color space : YUV
Chroma subsampling : 4:2:0
Bit depth : 8 bits
Scan type : Progressive
Bits/(Pixel*Frame) : 0.101
Stream size : 1.59 GiB (94%)
Color range : Limited
Color primaries : BT.709
Transfer characteristics : BT.709
Matrix coefficients : BT.709
Codec configuration box : avcC

Audio
ID : 2
Format : AAC LC
Format/Info : Advanced Audio Codec Low Complexity
Codec ID : mp4a-40-2
Duration : 43 min 29 s
Bit rate mode : Constant
Bit rate : 320 kb/s
Channel(s) : 2 channels
Channel layout : L R
Sampling rate : 48.0 kHz
Frame rate : 46.875 FPS (1024 SPF)
Compression mode : Lossy
Stream size : 99.5 MiB (6%)
Default : Yes
Alternate group : 1


点击图片可查看大图

软字幕无法在截图上展现,HDR版本/杜比视界版本截图会出现颜色异常,请使用支持的设备播放!



1 个附件 售价 大小 下载 时间

The.Story.Of.Chuaner.S02.2019.1080p.WEB-DL.H264.AAC-DDHDTV[1LOU.ME].torrent 0 金币 31.73K 623 次 2月前

#1楼
发帖时间:2023-12-05 16:26:43   |   回复数:0
游客组