BILL36
超凡入圣№

[2023] [大陆] [动作] [HDTV/HDrip] 修罗武神[第12集][国语配音/中文字幕].Martial.God.Asura.S01.2023.1080p.WEB-DL.H265.AAC-DDHDTV 0.

-->

完整标题:修罗武神[第12集][国语配音/中文字幕].Martial.God.Asura.S01.2023.1080p.WEB-DL.H265.AAC-DDHDTV 0.23GB



◎标  题 修罗武神
◎译  名 Martial God Asura
◎年  代 2023
◎产  地 中国大陆
◎类  别 动作 / 动画 / 奇幻 / 冒险 / 古装
◎语  言 汉语普通话
◎IMDb链接 https://www.imdb.com/title//
◎豆瓣链接 https://movie.douban.com/subject/35772443/
◎演  员 曹云图 Yuntu Cao
      申秋香 Qiuxiang Shen
      彭尧 Yao Peng
      李诗萌 Shimeng Li
      唐小喜 Xiaoxi Tang
      王晨光 Chenguang Wang
      鱼冻

◎简  介
    改编自同名小说,故事讲述了一个备受家族欺凌的少年,从一个平凡的下界二等门派青龙宗外门弟子,机缘巧合下得到九色神雷的力量,并发现自己体内封印着更为强大的力量,通过不断修炼成长,同时结识了苏美,苏柔等同伴,楚枫的实力不断增长,但不想其修炼天赋遭到青龙宗天骄龚路云妒忌,并与之许下了一年之约生死战的赌约......

部分资源为软字幕,移动端推荐播放器:MxPlayer,nPlayer,infuse ,其他播放器请自行尝试。

部分资源为软字幕,电脑端推荐播放器:PotPlayer,完美解码,KMPLAYER,其他播放器请自行尝试。

##### MediaInfo ######
General
Complete name : 修罗武神.Martial.God.Asura.S01E12.2023.1080p.WEB-DL.H265.AAC-DDHDTV.mp4
Duration : 17 min 39 s
Overall bit rate mode : Variable
Overall bit rate : 1 853 kb/s

Video
ID : 1
Format : HEVC
Format/Info : High Efficiency Video Coding
Format profile : Main@L4@Main
Codec ID : hev1
Codec ID/Info : High Efficiency Video Coding
Duration : 17 min 39 s
Source duration : 17 min 39 s
Bit rate : 1 753 kb/s
Width : 1 920 pixels
Height : 1 080 pixels
Display aspect ratio : 16:9
Frame rate mode : Variable
Frame rate : 25.000 FPS
Minimum frame rate : 24.993 FPS
Maximum frame rate : 25.007 FPS
Color space : YUV
Chroma subsampling : 4:2:0
Bit depth : 8 bits
Bits/(Pixel*Frame) : 0.034
Stream size : 221 MiB (95%)
Source stream size : 221 MiB (95%)
Color range : Limited
Color primaries : BT.709
Matrix coefficients : BT.709
mdhd_Duration : 1059400
Codec configuration box : hvcC

Audio
ID : 2
Format : AAC LC
Format/Info : Advanced Audio Codec Low Complexity
Codec ID : mp4a-40-2
Duration : 17 min 39 s
Bit rate mode : Variable
Bit rate : 93.4 kb/s
Maximum bit rate : 97.1 kb/s
Channel(s) : 2 channels
Channel layout : L R
Sampling rate : 48.0 kHz
Frame rate : 46.875 FPS (1024 SPF)
Compression mode : Lossy
Stream size : 11.8 MiB (5%)
Default : Yes
Alternate group : 1


点击图片可查看大图

软字幕无法在截图上展现,HDR版本/杜比视界版本截图会出现颜色异常,请使用支持的设备播放!



1 个附件 售价 大小 下载 时间

Martial.God.Asura.S01.2023.1080p.WEB-DL.H265.AAC-DDHDTV[1LOU.ME].torrent 0 金币 3.32K 483 次 2月前

#1楼
发帖时间:2023-12-05 13:33:13   |   回复数:0
游客组