BILL36
超凡入圣№

[2023] [日本] [动画] [HDTV/HDrip] 米奇与达利[第10集][中文字幕].Migi.to.Dali.S01.2023.1080p.WEB-DL.H264.AAC-DDHDTV 0.27GB

-->

完整标题:米奇与达利[第10集][中文字幕].Migi.to.Dali.S01.2023.1080p.WEB-DL.H264.AAC-DDHDTV 0.27GB



◎标  题 米奇与达利
◎译  名 Migi to Dali
◎片  名 ミギとダリ
◎年  代 2023
◎产  地 日本
◎类  别 动画
◎语  言 日语
◎IMDb链接 https://www.imdb.com/title//
◎豆瓣评分 8.3/10 (901人评价)
◎豆瓣链接 https://movie.douban.com/subject/35700023/
◎导  演 万球
◎编  剧 万球
      佐野菜见 Sano Nami
◎演  员 堀江瞬 Horie Shun
      村濑步 Ayumu Murase
      三石琴乃 Kotono Mitsuishi
      松山鹰志 Takashi Matsuyama
      浅沼晋太郎 Shintaro Asanuma
      武内骏辅 Shunsuke Takeuchi
      河西健吾 Kengo Kawanishi
      诸星堇 Sumire Morohoshi
      齐藤贵美子 Kimiko Saitô
      朴璐美 Romi Park
      关根明良 Akira Sekine

◎简  介
    佐野菜見新作漫画《基米与达利》宣布短动画化。

部分资源为软字幕,移动端推荐播放器:MxPlayer,nPlayer,infuse ,其他播放器请自行尝试。

部分资源为软字幕,电脑端推荐播放器:PotPlayer,完美解码,KMPLAYER,其他播放器请自行尝试。

##### MediaInfo ######
General
Complete name : Migi.to.Dali.S01E10.2023.1080p.WEB-DL.H264.AAC-DDHDTV.mp4
Duration : 23 min 27 s
Overall bit rate : 1 639 kb/s

Video
ID : 1
Format : AVC
Format/Info : Advanced Video Codec
Format profile : High@L5
Format settings : CABAC / 8 Ref Frames
Format settings, CABAC : Yes
Format settings, Reference frames : 8 frames
Codec ID : avc1
Codec ID/Info : Advanced Video Coding
Duration : 23 min 27 s
Bit rate : 1 462 kb/s
Width : 1 920 pixels
Height : 1 080 pixels
Display aspect ratio : 16:9
Frame rate mode : Variable
Frame rate : 23.976 (24000/1001) FPS
Minimum frame rate : 23.810 FPS
Maximum frame rate : 24.390 FPS
Color space : YUV
Chroma subsampling : 4:2:0
Bit depth : 8 bits
Scan type : Progressive
Bits/(Pixel*Frame) : 0.029
Stream size : 245 MiB (89%)
Color range : Limited
Color primaries : BT.709
Transfer characteristics : BT.709
Matrix coefficients : BT.709
Codec configuration box : avcC

Audio
ID : 2
Format : AAC LC
Format/Info : Advanced Audio Codec Low Complexity
Codec ID : mp4a-40-2
Duration : 23 min 27 s
Bit rate mode : Constant
Bit rate : 171 kb/s
Channel(s) : 2 channels
Channel layout : L R
Sampling rate : 48.0 kHz
Frame rate : 46.875 FPS (1024 SPF)
Compression mode : Lossy
Stream size : 28.8 MiB (10%)
Default : Yes
Alternate group : 1


点击图片可查看大图

软字幕无法在截图上展现,HDR版本/杜比视界版本截图会出现颜色异常,请使用支持的设备播放!



1 个附件 售价 大小 下载 时间

Migi.to.Dali.S01.2023.1080p.WEB-DL.H264.AAC-DDHDTV[1LOU.ME].torrent 0 金币 3.38K 203 次 2月前

#1楼
发帖时间:2023-12-05 13:13:38   |   回复数:0
游客组