BILL36
超凡入圣№

[2014] [日本] [动画] [WEB-1080P] 记录的地平线 第二季[全25集][中文字幕].Log.Horizon.2014.S02.Complete.1080p.WEB-DL.HEVC.AAC-Xunle

-->

完整标题:记录的地平线 第二季[全25集][中文字幕].Log.Horizon.2014.S02.Complete.1080p.WEB-DL.HEVC.AAC-Xunlei 4.80GB



◎标  题 记录的地平线 第二季
◎译  名 Log Horizon Season 2
◎片  名 ログ・ホライズン 第2シリーズ
◎年  代 2014
◎产  地 日本
◎类  别 动画
◎语  言 日语
◎IMDb评分 7.4/10 (58人评价)
◎IMDb链接 https://www.imdb.com/title/tt4006796/
◎豆瓣评分 8.2/10 (4644人评价)
◎豆瓣链接 https://movie.douban.com/subject/25851661/
◎演  员 寺岛拓笃 Takuma Terashima
      加藤英美里 Emiri Katou
      前野智昭 Tomoaki Maeno
      中田让治 Jôji Nakata
      山下大辉 Daiki Yamashita
      柿原彻也 Tetsuya Kakihara
      下野纮 Hiro Shimono
      樱井孝宏 Takahiro Sakurai
      原由实 Yumi Hara
      高垣彩阳 Ayahi Takagaki
      中村悠一 Yuuichi Nakamura
      斋藤千和 Chiwa Saito
      三木真一郎 Shinichirô Miki
      能登麻美子 Mamiko Noto
      胜杏里 Anri Katsu
      藤井雪代 Yukiyo Fujii
      下山吉光 Yoshimitsu Shimoyama
      阪口周平 Shuhei Sakaguchi
      土田大 Hiroshi Tsuchida
      西田雅一 Masakazu Nishida
      雨宫天 Sora Amamiya
      种田梨沙 Risa Taneda
      名冢佳织 Kaori Nazuka
      井泽诗织 Shiori Izawa
      行成桃姬 Toa Yukinari
      松井惠理子 Eriko Matsui
      田村奈央 Tamura Nao
      高野麻里佳 Marika Kouno
      村田太志 Taishi Murata

◎简  介
    TV动画第二季2014年10月4日开播。   详见维基百科http://zh.wikipedia.org/wiki/%E8%A8%98%E9%8C%84%E7%9A%84%E5%9C%B0%E5%B9%B3%E7%B7%9A

部分资源为软字幕,移动端推荐播放器:MxPlayer,nPlayer,infuse ,其他播放器请自行尝试。

部分资源为软字幕,电脑端推荐播放器:PotPlayer,完美解码,KMPLAYER,其他播放器请自行尝试。

##### MediaInfo ######
General
Complete name : 记录的地平线 第二季.Log.Horizon.2014.S02E01.1080p.WEB-DL.HEVC.AAC-Xunlei.mp4
Duration : 24 min 30 s
Overall bit rate : 1 090 kb/s

Video
ID : 1
Format : HEVC
Format/Info : High Efficiency Video Coding
Format profile : Main@L5@Main
Codec ID : hev1
Codec ID/Info : High Efficiency Video Coding
Duration : 24 min 30 s
Bit rate : 763 kb/s
Width : 1 920 pixels
Height : 1 080 pixels
Display aspect ratio : 16:9
Frame rate mode : Variable
Frame rate : 23.976 (24000/1001) FPS
Minimum frame rate : 23.810 FPS
Maximum frame rate : 24.390 FPS
Color space : YUV
Chroma subsampling : 4:2:0
Bit depth : 8 bits
Bits/(Pixel*Frame) : 0.015
Stream size : 134 MiB (70%)
Color range : Limited
Color primaries : BT.709
Transfer characteristics : BT.709
Matrix coefficients : BT.709
mdhd_Duration : 1470010
Codec configuration box : hvcC

Audio
ID : 2
Format : AAC LC
Format/Info : Advanced Audio Codec Low Complexity
Codec ID : mp4a-40-2
Duration : 24 min 30 s
Bit rate mode : Constant
Bit rate : 320 kb/s
Channel(s) : 2 channels
Channel layout : L R
Sampling rate : 48.0 kHz
Frame rate : 46.875 FPS (1024 SPF)
Compression mode : Lossy
Stream size : 56.1 MiB (29%)
Language : Japanese
Default : Yes
Alternate group : 1




1 个附件 售价 大小 下载 时间

Log.Horizon.2014.S02.Complete.1080p.WEB-DL.HEVC.AAC-Xunlei[1LOU.ME].torrent 0 金币 17.48K 175 次 2月前

#1楼
发帖时间:2023-12-05 12:59:00   |   回复数:0
游客组