BILL36
超凡入圣№

[2023] [日本] [科幻] [WEB-1080P] 星灵感应[第09集][中文字幕].Stardust.Telepath.2023.S01.1080p.LINETV.WEB-DL.AVC.AAC-Xunlei 0

-->

完整标题:星灵感应[第09集][中文字幕].Stardust.Telepath.2023.S01.1080p.LINETV.WEB-DL.AVC.AAC-Xunlei 0.41GB



◎标  题 星灵感应
◎片  名 星屑テレパス
◎年  代 2023
◎产  地 日本
◎类  别 科幻 / 动画 / 同性
◎语  言 日语
◎IMDb评分 7.1/10 (29人评价)
◎IMDb链接 https://www.imdb.com/title/tt29171939/
◎豆瓣评分 7.9/10 (278人评价)
◎豆瓣链接 https://movie.douban.com/subject/36118501/
◎导  演 小森香织 Kaori
◎编  剧 小森香织 Kaori
      高桥奈津子 Natsuko Takahashi
◎演  员 船户百合绘 Yurie Funato
      深川芹亚 Seria Fukagawa
      永牟田萌 Nagamuta Moe
      青木志贵 Aoki Shiki
      羊宫妃那 Hina Youmiya
      高森奈津美 Natsumi Takamori

◎简  介
    憧憬宇宙、不擅长表达的少女小之星海果,遇见了自称外星人、有心灵感应能力的少女明内幽。想去太空的海果和想回太空的小幽,想要用自己的双手建造可以飞去宇宙的火箭,故事就此展开。

部分资源为软字幕,移动端推荐播放器:MxPlayer,nPlayer,infuse ,其他播放器请自行尝试。

部分资源为软字幕,电脑端推荐播放器:PotPlayer,完美解码,KMPLAYER,其他播放器请自行尝试。

##### MediaInfo ######
General
Complete name : 星灵感应.Stardust.Telepath.2023.S01E09.1080p.LINETV.WEB-DL.AVC.AAC-Xunlei.mp4
Duration : 23 min 39 s
Overall bit rate mode : Variable
Overall bit rate : 2 503 kb/s

Video
ID : 1
Format : AVC
Format/Info : Advanced Video Codec
Format profile : High@L4
Format settings : CABAC / 3 Ref Frames
Format settings, CABAC : Yes
Format settings, Reference frames : 3 frames
Codec ID : avc1
Codec ID/Info : Advanced Video Coding
Duration : 23 min 39 s
Source duration : 23 min 39 s
Bit rate mode : Variable
Bit rate : 2 370 kb/s
Maximum bit rate : 9 000 kb/s
Width : 1 920 pixels
Height : 1 080 pixels
Display aspect ratio : 16:9
Frame rate mode : Variable
Frame rate : 23.976 (24000/1001) FPS
Minimum frame rate : 23.974 FPS
Maximum frame rate : 23.981 FPS
Color space : YUV
Chroma subsampling : 4:2:0
Bit depth : 8 bits
Scan type : Progressive
Bits/(Pixel*Frame) : 0.048
Stream size : 401 MiB (95%)
Source stream size : 401 MiB (95%)
mdhd_Duration : 1419951
Codec configuration box : avcC

Audio
ID : 2
Format : AAC LC
Format/Info : Advanced Audio Codec Low Complexity
Codec ID : mp4a-40-2
Duration : 23 min 39 s
Bit rate mode : Constant
Bit rate : 125 kb/s
Channel(s) : 2 channels
Channel layout : L R
Sampling rate : 48.0 kHz
Frame rate : 46.875 FPS (1024 SPF)
Compression mode : Lossy
Stream size : 21.2 MiB (5%)
Language : Japanese
Default : Yes
Alternate group : 1




1 个附件 售价 大小 下载 时间

Stardust.Telepath.2023.S01.1080p.LINETV.WEB-DL.AVC.AAC-Xunlei[1LOU.ME].torrent 0 金币 3.79K 77 次 2月前

#1楼
发帖时间:2023-12-05 12:55:57   |   回复数:0
游客组