BILL36
超凡入圣№

[2021] [大陆] [动画] [HDTV/HDrip] 逆天至尊[第255集][国语配音/中文字幕].Against.the.Sky.Supreme.S01.2021.1080p.WEB-DL.H265.AAC-DD

-->

完整标题:逆天至尊[第255集][国语配音/中文字幕].Against.the.Sky.Supreme.S01.2021.1080p.WEB-DL.H265.AAC-DDHDTV 0.12GB



◎标  题 逆天至尊
◎译  名 Against the sky Supreme / N.T.Z.Z
◎年  代 2021
◎产  地 中国大陆
◎类  别 动画
◎语  言 汉语普通话
◎IMDb链接 https://www.imdb.com/title//
◎豆瓣链接 https://movie.douban.com/subject/35525931/
◎编  剧 枯崖雨墓

◎简  介
    整个宇宙分为域内宇宙和域外宇宙,两个宇宙彼此为敌,域外宇宙由天魔统治,域内宇宙分为神界,仙界,凡间。 在宇宙中,像天罚大陆这样的凡间位面,数不胜数,其统称为:九天星域。九天星域中,九大仙帝统领九重之中所有星域。九天之上,乃炼仙神域,仙人最终化神之路,必要通过炼仙神域,方能凝聚神格,成为神,到达神界。神界万族林立,各族之神极为强大。在遥远的过去,神界万族,被始源至尊、混沌至尊,还有鸿蒙至尊统领。三大至尊,三足鼎立,统管神界、九天仙界。 鸿蒙神界之主鸿蒙至尊,身份尊贵,属下众多,为神界最强之人,精通天下万术。彼

部分资源为软字幕,移动端推荐播放器:MxPlayer,nPlayer,infuse ,其他播放器请自行尝试。

部分资源为软字幕,电脑端推荐播放器:PotPlayer,完美解码,KMPLAYER,其他播放器请自行尝试。

##### MediaInfo ######
General
Complete name : 逆天至尊.Against.the.Sky.Supreme.S01E255.2021.1080p.WEB-DL.H265.AAC-DDHDTV.mp4
Duration : 12 min 6 s
Overall bit rate mode : Variable
Overall bit rate : 1 419 kb/s

Video
ID : 1
Format : HEVC
Format/Info : High Efficiency Video Coding
Format profile : Main@L4@Main
Codec ID : hev1
Codec ID/Info : High Efficiency Video Coding
Duration : 12 min 6 s
Source duration : 12 min 6 s
Bit rate : 1 320 kb/s
Width : 1 920 pixels
Height : 1 080 pixels
Display aspect ratio : 16:9
Frame rate mode : Variable
Frame rate : 25.000 FPS
Minimum frame rate : 24.993 FPS
Maximum frame rate : 25.007 FPS
Color space : YUV
Chroma subsampling : 4:2:0
Bit depth : 8 bits
Bits/(Pixel*Frame) : 0.025
Stream size : 114 MiB (93%)
Source stream size : 114 MiB (93%)
Color range : Limited
Color primaries : BT.709
Transfer characteristics : BT.709
Matrix coefficients : BT.709
Codec configuration box : hvcC

Audio
ID : 2
Format : AAC LC
Format/Info : Advanced Audio Codec Low Complexity
Codec ID : mp4a-40-2
Duration : 12 min 6 s
Bit rate mode : Variable
Bit rate : 93.4 kb/s
Maximum bit rate : 97.0 kb/s
Channel(s) : 2 channels
Channel layout : L R
Sampling rate : 48.0 kHz
Frame rate : 46.875 FPS (1024 SPF)
Compression mode : Lossy
Stream size : 8.09 MiB (7%)
Default : Yes
Alternate group : 1


点击图片可查看大图

软字幕无法在截图上展现,HDR版本/杜比视界版本截图会出现颜色异常,请使用支持的设备播放!



1 个附件 售价 大小 下载 时间

Against.the.Sky.Supreme.S01.2021.1080p.WEB-DL.H265.AAC-DDHDTV[1LOU.ME].torrent 0 金币 3.05K 42 次 2月前

#1楼
发帖时间:2023-12-04 22:34:03   |   回复数:0
游客组