BILL36
超凡入圣№

[2023] [台湾] [HDTV/HDrip] 生命捕手[第03-04集][国语配音/中文字幕].Dr.Lifesaver.S01.2023.1080p.LINETV.WEB-DL.H264.AAC-DDHD

-->

完整标题:生命捕手[第03-04集][国语配音/中文字幕].Dr.Lifesaver.S01.2023.1080p.LINETV.WEB-DL.H264.AAC-DDHDTV 3.83GB



◎标  题 生命捕手
◎译  名 Dr. Lifesaver
◎年  代 2023
◎产  地 中国台湾
◎语  言 汉语普通话
◎IMDb链接 https://www.imdb.com/title//
◎豆瓣链接 https://movie.douban.com/subject/36055706/
◎导  演 柯政铭 Cheng-Ming Ko
◎演  员 陈嘉桦 Ella Chen
      柯叔元 Alex Shu-Yuan Ko
      王识贤 Jason Wang
      苗可丽 Keli Miao
      江祖平 Amigo Chiang
      邱永腾 Cliff Cho

◎简  介
    集天賦及實力於一身的醫生杜樂生,在20年前一場巨大災難中,親身經歷生命無常、體制無情! 在這場意外中,他失去摯愛的女友與情同家人的精神導師,之後他離開令他失望的醫院體制,隱身在小診所中用自己的方式,化身醫療外送員,搶救緊急患者,爭分奪秒不願放棄一線生機。也透過一次次出動、搶救生命的過程,修補自己內心的創傷與愧疚。 同時,杜樂生與地方綜合醫院的副院長李志豪間亦敵亦友的強強對決,加上處事強悍但內心柔軟的女醫生徐敏安總在關鍵時刻介入;接連不同的醫療事件發生,所面臨種種醫病之間的人情、同僚之間的價值觀及自我的感情認同,讓杜樂生了解他必須重回體制,才能真正改革體制,但這一決定卻也成了20年前大災難真相所隱藏的秘密引爆點……

部分资源为软字幕,移动端推荐播放器:MxPlayer,nPlayer,infuse ,其他播放器请自行尝试。

部分资源为软字幕,电脑端推荐播放器:PotPlayer,完美解码,KMPLAYER,其他播放器请自行尝试。

##### MediaInfo ######
General
Unique ID : 165399747933017054137663901742660521823 (0x7C6ED52E0B556B7CB6EEB32F944F0F5F)
Complete name : 生命捕手.Dr.Lifesaver.S01E03.2023.1080p.LINETV.WEB-DL.H264.AAC-DDHDTV.mkv
Duration : 47 min 4 s
Overall bit rate mode : Variable
Overall bit rate : 5 580 kb/s

Video
ID : 1
Format : AVC
Format/Info : Advanced Video Codec
Format profile : High@L4
Format settings : CABAC / 3 Ref Frames
Format settings, CABAC : Yes
Format settings, Reference frames : 3 frames
Codec ID : V_MPEG4/ISO/AVC
Duration : 47 min 4 s
Bit rate mode : Variable
Bit rate : 5 452 kb/s
Maximum bit rate : 9 000 kb/s
Width : 1 920 pixels
Height : 1 080 pixels
Display aspect ratio : 16:9
Frame rate mode : Constant
Frame rate : 29.970 (30000/1001) FPS
Color space : YUV
Chroma subsampling : 4:2:0
Bit depth : 8 bits
Scan type : Progressive
Bits/(Pixel*Frame) : 0.088
Stream size : 1.79 GiB (98%)
Language : Chinese
Default : Yes
Forced : No
Color range : Limited
Color primaries : BT.709
Transfer characteristics : BT.709
Matrix coefficients : BT.709

Audio
ID : 2
Format : AAC LC
Format/Info : Advanced Audio Codec Low Complexity
Codec ID : A_AAC-2
Duration : 47 min 4 s
Bit rate : 125 kb/s
Channel(s) : 2 channels
Channel layout : L R
Sampling rate : 48.0 kHz
Frame rate : 46.875 FPS (1024 SPF)
Compression mode : Lossy
Delay relative to video : -33 ms
Stream size : 42.2 MiB (2%)
Language : Chinese
Default : Yes
Forced : No


点击图片可查看大图

软字幕无法在截图上展现,HDR版本/杜比视界版本截图会出现颜色异常,请使用支持的设备播放!



1 个附件 售价 大小 下载 时间

Dr.Lifesaver.S01.2023.1080p.LINETV.WEB-DL.H264.AAC-DDHDTV[1LOU.ME].torrent 0 金币 12.43K 322 次 2月前

#1楼
发帖时间:2023-12-04 22:33:33   |   回复数:0
游客组