BILL36
超凡入圣№

[2022] [大陆] [动画] [WEB-4K] 燃夏[第05集][国语配音/中文字幕].Summer.Punch.S01.2023.2160p.WEB-DL.H264.AAC-DDHDTV 0.90GB

-->

完整标题:燃夏[第05集][国语配音/中文字幕].Summer.Punch.S01.2023.2160p.WEB-DL.H264.AAC-DDHDTV 0.90GB



◎标  题 燃夏
◎译  名 疯狂夏日 / 暴走夏日 / Summer Punch
◎年  代 2022
◎产  地 中国大陆
◎类  别 动画
◎语  言 汉语普通话
◎IMDb链接 https://www.imdb.com/title//
◎豆瓣链接 https://movie.douban.com/subject/35954442/
◎编  剧 李天成
◎演  员 姜英俊 Yingjun Jiang
      李翰林 Hanlin Li
      杨昕燃

◎简  介
    动画#暴走夏日# 定档PV发布!7月28日起每周四11:00   PV链接:   https://www.bilibili.com/bangumi/play/ep519785   简介:出场就大胜不败传说,这个妹妹不简单!曾经的门派最强者申冬,如今只想安稳度日,但夏日的出现却打破了其宁静的生活。这个到处闯祸的女生看似乖张不羁,内心却善良温暖。申冬逐渐被其影响感动......与此同时,四大门派间的矛盾不断升级,这一次,新仇旧怨一并了结!

部分资源为软字幕,移动端推荐播放器:MxPlayer,nPlayer,infuse ,其他播放器请自行尝试。

部分资源为软字幕,电脑端推荐播放器:PotPlayer,完美解码,KMPLAYER,其他播放器请自行尝试。

##### MediaInfo ######
General
Complete name : 燃夏.Summer.Punch.S01E05.2023.2160p.WEB-DL.H264.AAC-DDHDTV.mp4
Duration : 11 min 43 s
Overall bit rate : 11.0 Mb/s

Video
ID : 1
Format : AVC
Format/Info : Advanced Video Codec
Format profile : [email protected]
Format settings : CABAC / 5 Ref Frames
Format settings, CABAC : Yes
Format settings, Reference frames : 5 frames
Codec ID : avc1
Codec ID/Info : Advanced Video Coding
Duration : 11 min 43 s
Bit rate : 10.8 Mb/s
Width : 3 840 pixels
Height : 2 160 pixels
Display aspect ratio : 16:9
Frame rate mode : Variable
Frame rate : 24.000 FPS
Minimum frame rate : 23.810 FPS
Maximum frame rate : 24.390 FPS
Color space : YUV
Chroma subsampling : 4:2:0
Bit depth : 8 bits
Scan type : Progressive
Bits/(Pixel*Frame) : 0.054
Stream size : 903 MiB (98%)
Color range : Limited
Color primaries : BT.709
Transfer characteristics : BT.709
Matrix coefficients : BT.709
Codec configuration box : avcC

Audio
ID : 2
Format : AAC LC
Format/Info : Advanced Audio Codec Low Complexity
Codec ID : mp4a-40-2
Duration : 11 min 43 s
Bit rate mode : Constant
Bit rate : 185 kb/s
Channel(s) : 2 channels
Channel layout : L R
Sampling rate : 48.0 kHz
Frame rate : 46.875 FPS (1024 SPF)
Compression mode : Lossy
Stream size : 15.5 MiB (2%)
Language : Chinese
Default : Yes
Alternate group : 1




1 个附件 售价 大小 下载 时间

Summer.Punch.S01.2023.2160p.WEB-DL.H264.AAC-DDHDTV[1LOU.ME].torrent 0 金币 5.61K 231 次 2月前

#1楼
发帖时间:2023-12-04 22:32:02   |   回复数:0
游客组