BILL36
超凡入圣№

[2023] [大陆] [动画] [HDTV/HDrip] 三十六骑[第10集][国语配音/中文字幕].Thirty.six.cavalry.S01.2023.1080p.WEB-DL.H264.AAC-DDHDTV 0

-->

完整标题:三十六骑[第10集][国语配音/中文字幕].Thirty.six.cavalry.S01.2023.1080p.WEB-DL.H264.AAC-DDHDTV 0.62GB



◎标  题 三十六骑
◎译  名 36 Riders
◎片  名 三十六骑 第一季
◎年  代 2023
◎产  地 中国大陆
◎类  别 动画 / 奇幻
◎语  言 汉语普通话
◎IMDb链接 https://www.imdb.com/title//
◎豆瓣链接 https://movie.douban.com/subject/35638260/
◎导  演 陈升垚 Shengyao Chen
◎演  员 魏超 Chao Wei
      唐小喜 Xiaoxi Tang
      苗壮 Zhuang Miao
      阎萌萌 Mengmeng Yan
      王晨光 Chenguang Wang
      杨默 Mo Yang
      孟宇 Yu Meng
      齐斯伽 Sijia Qi
      苏俣 Yu Su
      锦鲤 Jinwen Chen
      赵毅 Yi Zhao
      赵铭洲 Mingzhou Zhao
      赵述仁 Shuren Zhao
      刘思岑 Sicen Liu
      褚珺 Jun Chu

◎简  介
    汉明帝授史家后裔班超青铜燕符,让他出使西域,寻找长生之法和梦中金佛。班超探寻隐匿于京城的高手,墨家传人、盗门后人,夜郎蛊师等三十六人同行。除却完成皇帝心愿,还为了寻求史家渊源以及陷害自己父亲的凶手。

部分资源为软字幕,移动端推荐播放器:MxPlayer,nPlayer,infuse ,其他播放器请自行尝试。

部分资源为软字幕,电脑端推荐播放器:PotPlayer,完美解码,KMPLAYER,其他播放器请自行尝试。

##### MediaInfo ######
General
Complete name : 三十六骑.Thirty.six.cavalry.S01E10.2023.1080p.WEB-DL.H264.AAC-DDHDTV.mp4
Duration : 19 min 43 s
Overall bit rate : 4 488 kb/s

Video
ID : 1
Format : AVC
Format/Info : Advanced Video Codec
Format profile : High@L5
Format settings : CABAC / 6 Ref Frames
Format settings, CABAC : Yes
Format settings, Reference frames : 6 frames
Codec ID : avc1
Codec ID/Info : Advanced Video Coding
Duration : 19 min 43 s
Bit rate : 4 292 kb/s
Width : 1 920 pixels
Height : 1 080 pixels
Display aspect ratio : 16:9
Frame rate mode : Constant
Frame rate : 25.000 FPS
Color space : YUV
Chroma subsampling : 4:2:0
Bit depth : 8 bits
Scan type : Progressive
Bits/(Pixel*Frame) : 0.083
Stream size : 606 MiB (96%)
Color range : Limited
Color primaries : BT.709
Transfer characteristics : BT.709
Matrix coefficients : BT.709
Codec configuration box : avcC

Audio
ID : 2
Format : AAC LC
Format/Info : Advanced Audio Codec Low Complexity
Codec ID : mp4a-40-2
Duration : 19 min 43 s
Bit rate mode : Constant
Bit rate : 192 kb/s
Channel(s) : 2 channels
Channel layout : L R
Sampling rate : 48.0 kHz
Frame rate : 46.875 FPS (1024 SPF)
Compression mode : Lossy
Stream size : 26.9 MiB (4%)
Language : Chinese
Default : Yes
Alternate group : 1


点击图片可查看大图

软字幕无法在截图上展现,HDR版本/杜比视界版本截图会出现颜色异常,请使用支持的设备播放!



1 个附件 售价 大小 下载 时间

Thirty.six.cavalry.S01.2023.1080p.WEB-DL.H264.AAC-DDHDTV[1LOU.ME].torrent 0 金币 4.29K 357 次 2月前

#1楼
发帖时间:2023-12-04 22:20:44   |   回复数:0
游客组