BILL36
超凡入圣№

[2016] [韩国] [真人秀] [HDTV/HDrip] 我家的熊孩子[第370集][中文字幕].My.Little.Old.Boy.S01.2016.1080p.Viu.WEB-DL.x264.AAC-DDHDTV

-->

完整标题:我家的熊孩子[第370集][中文字幕].My.Little.Old.Boy.S01.2016.1080p.Viu.WEB-DL.x264.AAC-DDHDTV 2.23GB



◎标  题 我家的熊孩子
◎片  名 미운 우리 새끼
◎年  代 2016
◎产  地 韩国
◎类  别 真人秀 / 脱口秀
◎语  言 韩语
◎IMDb链接 https://www.imdb.com/title//
◎豆瓣评分 8.6/10 (4001人评价)
◎豆瓣链接 https://movie.douban.com/subject/26868505/
◎演  员 申东烨 Dong-Yub Shin
      徐章勋 Jang-hoon Seo
      韩惠轸 Hye-jin Han
      胡玄珠 Jessi
      李尚敏 Sang-min Lee
      朴修弘 Soo-Hong Park
      许志雄 Ji-woong Heo
      安胜浩 Tony An
      金钟国 Jong-Kook Kim
      林元熙 Won-hie Lim
      裴正南 Jung-nam Bae
      洪真英 Jin-young Hong
      卓在勋 Jae-hun Tak
      金希澈 Hee-chul Kim
      吴珉锡 Min-Seok Oh
      朴善英 Park Sun Young

◎简  介
    《我家的熊孩子》是一档韩国脱口秀节目。节目主要关注家长与孩子之间的问题。你对孩子了解多少?今天孩子和谁见面了,又发生了什么样的故事?孩子今天怎么满面愁容,又为什么食欲突然增加?通过这个节目家长对这些问题会有更深的思考。

部分资源为软字幕,移动端推荐播放器:MxPlayer,nPlayer,infuse ,其他播放器请自行尝试。

部分资源为软字幕,电脑端推荐播放器:PotPlayer,完美解码,KMPLAYER,其他播放器请自行尝试。

##### MediaInfo ######
General
Unique ID : 252505483363777262865627267135187180989 (0xBDF6C982DFB79D835F318CB8A5BFDDBD)
Complete name : My.Little.Old.Boy.S01E370.2016.1080p.Viu.WEB-DL.x264.AAC-DDHDTV.mkv
Duration : 1 h 41 min
Overall bit rate mode : Variable
Overall bit rate : 3 140 kb/s

Video
ID : 1
Format : AVC
Format/Info : Advanced Video Codec
Format profile : [email protected]
Format settings : CABAC / 4 Ref Frames
Format settings, CABAC : Yes
Format settings, Reference frames : 4 frames
Codec ID : V_MPEG4/ISO/AVC
Duration : 1 h 41 min
Bit rate mode : Variable
Bit rate : 3 040 kb/s
Maximum bit rate : 4 500 kb/s
Width : 1 920 pixels
Height : 1 080 pixels
Display aspect ratio : 16:9
Frame rate mode : Constant
Frame rate : 29.970 (30000/1001) FPS
Original frame rate : 29.970 (29970/1000) FPS
Color space : YUV
Chroma subsampling : 4:2:0
Bit depth : 8 bits
Scan type : Progressive
Bits/(Pixel*Frame) : 0.049
Stream size : 2.16 GiB (97%)
Writing library : VOLO1.4.1
Language : Korean
Default : Yes
Forced : No

Audio
ID : 2
Format : AAC LC
Format/Info : Advanced Audio Codec Low Complexity
Codec ID : A_AAC-2
Duration : 1 h 41 min
Bit rate : 96.0 kb/s
Channel(s) : 2 channels
Channel layout : L R
Sampling rate : 48.0 kHz
Frame rate : 46.875 FPS (1024 SPF)
Compression mode : Lossy
Delay relative to video : -42 ms
Stream size : 69.8 MiB (3%)
Language : Korean
Default : Yes
Forced : No

Text #1
ID : 3
Format : UTF-8
Codec ID : S_TEXT/UTF8
Codec ID/Info : UTF-8 Plain Text
Duration : 1 h 41 min
Bit rate : 64 b/s
Frame rate : 0.315 FPS
Count of elements : 1920
Stream size : 47.8 KiB (0%)
Title : Chinese Simplified
Language : Chinese
Default : Yes
Forced : No

Text #2
ID : 4
Format : UTF-8
Codec ID : S_TEXT/UTF8
Codec ID/Info : UTF-8 Plain Text
Duration : 1 h 41 min
Bit rate : 107 b/s
Frame rate : 0.477 FPS
Count of elements : 2907
Stream size : 79.7 KiB (0%)
Title : Chinese Traditional
Language : Chinese
Default : No
Forced : No


点击图片可查看大图

软字幕无法在截图上展现,HDR版本/杜比视界版本截图会出现颜色异常,请使用支持的设备播放!



1 个附件 售价 大小 下载 时间

My.Little.Old.Boy.S01.2016.1080p.Viu.WEB-DL.x264.AAC-DDHDTV[1LOU.ME].torrent 0 金币 8.30K 70 次 2月前

#1楼
发帖时间:2023-12-04 22:08:40   |   回复数:0
游客组