BILL36
超凡入圣№

[2023] [大陆] [剧情] [WEB-4K] 闪耀的她[第17-18集][国语配音/中文字幕].Stand.or.Fall.S01.2023.2160p.WEB-DL.H265.DDP2.0-SeeWEB

-->

完整标题:闪耀的她[第17-18集][国语配音/中文字幕].Stand.or.Fall.S01.2023.2160p.WEB-DL.H265.DDP2.0-SeeWEB 0.96GB



◎标  题 闪耀的她
◎译  名 她只是不想输 / 奔三那年
◎年  代 2023
◎产  地 中国大陆
◎类  别 剧情
◎语  言 汉语普通话
◎IMDb链接 https://www.imdb.com/title/tt28098871/
◎豆瓣链接 https://movie.douban.com/subject/35907887/
◎导  演 王迎 Ying Wang
◎编  剧 虞箐 Qing Yu
◎演  员 秦岚 Lan Qin
      王阳 Wayne Wang
      张萌 Alina Zhang
      刘芸 Yun Liu
      魏千翔 Qianxiang Wei
      王冠逸 Lawrence Wong
      张铎 Duo Zhang
      季晨 Chen Ji
      刘萌萌 Mengmeng Liu
      李东恒 Dongheng Li
      雷牧 Mu Lei
      蒋恺 Kai Jiang
      佟晨洁 Chenjie Tong
      王沐暄 Muxuan Wang

◎简  介
    一路在外企晋升顺遂、被誉为“难缠客户千刀斩”的管文,在33岁生日前夕遭遇职场后浪的埋坑而选择裸辞。所谓“三十三乱刀斩”,没想到重启事业之路却颇为坎坷,多方面试被破坏后只得选择了一家新开不久的商场。表面上她是从乙方跳到了甲方,实际上这家商场因为各种原因招商不顺,已冷落许久。此外,她更是遇到曾经的大学恋人、职场冷面辣手丁宁,对她诸多要求、百般挑剔。两人的共事从纠葛互怼到暧昧不清,再由破冰牵手到急转直下,情感中掺杂太多成人世界的计量,管文进退两难,亦不愿丁宁为她而过分妥协、牺牲事业,她思量再三之后还是选择自己掌握决定权。   与此同时,管文的两个闺蜜——退役运动员陈萱萱、过气女明星景知秋也各自遇到了人生中的坎儿:一个数年爱情长跑遭遇挑战,另一个婚姻状况亮起红灯。她们要如何打赢生活这场仗呢?

##### MediaInfo ######
General
Complete name : 闪耀的她.Stand.or.Fall.S01E17.2023.2160p.WEB-DL.H265.DDP2.0-SeeWEB.mp4
Format : MPEG-4
Format profile : Base Media
Codec ID : isom (isom/iso2/mp41)
File size : 469 MiB
Duration : 37 min 45 s
Overall bit rate : 1 738 kb/s
Writing application : OurTV Multimedia Platform

Video
ID : 1
Format : HEVC
Format/Info : High Efficiency Video Coding
Format profile : Main@L5@Main
Codec ID : hev1
Codec ID/Info : High Efficiency Video Coding
Duration : 37 min 44 s
Source duration : 37 min 44 s
Bit rate : 1 348 kb/s
Width : 3 840 pixels
Height : 2 160 pixels
Display aspect ratio : 16:9
Frame rate mode : Variable
Frame rate : 25.000 FPS
Minimum frame rate : 24.993 FPS
Maximum frame rate : 25.007 FPS
Color space : YUV
Chroma subsampling : 4:2:0
Bit depth : 8 bits
Bits/(Pixel*Frame) : 0.006
Stream size : 364 MiB (78%)
Source stream size : 364 MiB (78%)
Color range : Limited
Color primaries : BT.709
Transfer characteristics : BT.709
Matrix coefficients : BT.709
mdhd_Duration : 2264922
Codec configuration box : hvcC

Audio #1
ID : 2
Format : E-AC-3
Format/Info : Enhanced AC-3
Commercial name : Dolby Digital Plus
Codec ID : ec-3
Duration : 37 min 45 s
Bit rate mode : Constant
Bit rate : 256 kb/s
Channel(s) : 2 channels
Channel layout : L R
Sampling rate : 48.0 kHz
Frame rate : 31.250 FPS (1536 SPF)
Compression mode : Lossy
Stream size : 69.1 MiB (15%)
Title : 国语·杜比音效
Language : Chinese
Service kind : Complete Main
Default : Yes
Alternate group : 1

Audio #2
ID : 3
Format : AAC LC
Format/Info : Advanced Audio Codec Low Complexity
Codec ID : mp4a-40-2
Duration : 37 min 44 s
Bit rate mode : Constant
Bit rate : 125 kb/s
Channel(s) : 2 channels
Channel layout : L R
Sampling rate : 48.0 kHz
Frame rate : 46.875 FPS (1024 SPF)
Compression mode : Lossy
Stream size : 33.8 MiB (7%)
Title : 国语
Language : Chinese
Default : No
Alternate group : 1

点击图片可查看大图

软字幕无法在截图上展现,HDR版本/杜比视界版本截图会出现颜色异常,请使用支持的设备播放!

部分资源为软字幕,移动端推荐播放器:MxPlayer,nPlayer,infuse ,其他播放器请自行尝试。

部分资源为软字幕,电脑端推荐播放器:PotPlayer,完美解码,KMPLAYER,其他播放器请自行尝试。



1 个附件 售价 大小 下载 时间

Stand.or.Fall.S01.2023.2160p.WEB-DL.H265.DDP2.0-SeeWEB[BTBTT].torrent 0 金币 5.25K 343 次 8月前

#1楼
发帖时间:2023-06-26 20:28:18   |   回复数:0
游客组