BILL36
超凡入圣№

[2023] [大陆] [剧情] [WEB-1080P] 长风渡[第19-20集][国语配音/中文字幕].Destined.S01.2023.1080p.IQY.WEB-DL.H264.AAC-BlackTV 1.37

-->

完整标题:长风渡[第19-20集][国语配音/中文字幕].Destined.S01.2023.1080p.IQY.WEB-DL.H264.AAC-BlackTV 1.37GB



◎标  题 长风渡
◎年  代 2023
◎产  地 中国大陆
◎类  别 剧情 / 古装
◎语  言 汉语普通话
◎IMDb链接 https://www.imdb.com/title/tt28105665/
◎豆瓣链接 https://movie.douban.com/subject/35087777/
◎导  演 尹涛 Tao Yin
◎编  剧 白锦锦 Jingjing Bai
      沈念青 Nianqing Shen
      孙霁雯 Jiwen Sun
◎演  员 白敬亭 Jingting Bai
      宋轶 Yi Song
      刘学义 Xueyi Liu
      张昊唯 Haowei Zhang
      张睿 Rui Zhang
      赵子琪 Ziqi Zhao
      张绍刚 Shaogang Zhang
      沙溢 Yi Sha
      胡可 Ke Hu
      何晟铭 Shengming He
      张棪琰 Yanyan Zhang
      何中华 Zhonghua He
      王策 Ce Wang
      吴冕 Mian Wu
      章呈赫 Cheng he Zhang
      孔琳 Lin Kong
      程梓 Zi Cheng
      王九胜 Jiusheng Wang
      张晞临 Xilin Zhang
      丁勇岱 Yongdai Ding
      王瑞子 Ruizi Wang
      张维娜 Weina Zhang
      李欣泽 Xinze Li
      赵圆瑗 Yuanyuan Zhao
      聂子皓 Zihao Nie
      艾米 Aimee
      李小胖 Xiaopang Li
      郭昊钧 Haojun Guo
      赵奂然 Huanran Zhao
      邓凯 Kai Deng
      戴毅 Yi Dai
      卢禹豪 Yuhao Lu
      肖添仁 Tianren Xiao
      何涌生 Yongsheng He
      任学海 Xuehai Ren
      金楷杰 Kaijie Jin
      芮伟航 Weihang Rui
      谭琍敏 Limin Tan
      张志伟 Zhiwei Zhang

◎简  介
    布商之女柳玉茹自小遭遇生母病重、庶母不慈、父亲不重视的困境,她不得已谨小慎微,做了十几年模范闺秀。不料,对婚姻抱有憧憬的她却被家里安排嫁给了名满扬州的纨绔顾九思。顾九思误会柳玉茹是为了攀附权贵才嫁给他,对其嗤之以鼻。柳玉茹幡然醒悟,不能将命运系之婚姻、系之他人,决定跟随顾母学习经商之道,真实、独立、精彩地实现自我价值。经过努力,柳玉茹在生意上逐渐得心应手,更在此过程中发现了顾九思至纯至善、炽热真诚的一面,两个人的心也越靠越近。然而此时,扬州节度使倒行逆施,导致百姓流离失所,顾家不得已举家逃亡。顾九思看着万千流民,一夜之间长大。为结束乱局,让百姓安居,顾九思从捕快做起,官至户部尚书,与志同道合者扫除积弊、轻税轻徭。柳玉茹则内修善堂、外建商交,使得物资繁盛、百姓安康,两人共同谱写了一段盛世佳话。

##### MediaInfo ######
General
Complete name : Destined.S01E19.2023.1080p.IQY.WEB-DL.H264.AAC-BlackTV.mp4
Format : MPEG-4
Format profile : Base Media
Codec ID : isom (isom/iso2/avc1/mp41)
File size : 708 MiB
Duration : 45 min 56 s
Overall bit rate mode : Variable
Overall bit rate : 2 153 kb/s
Writing application : Lavf59.27.100

Video
ID : 1
Format : AVC
Format/Info : Advanced Video Codec
Format profile : High@L4
Format settings : CABAC / 3 Ref Frames
Format settings, CABAC : Yes
Format settings, Reference frames : 3 frames
Codec ID : avc1
Codec ID/Info : Advanced Video Coding
Duration : 45 min 56 s
Source duration : 45 min 56 s
Bit rate : 1 867 kb/s
Maximum bit rate : 1 955 kb/s
Width : 1 920 pixels
Height : 800 pixels
Display aspect ratio : 2.40:1
Frame rate mode : Constant
Frame rate : 25.000 FPS
Color space : YUV
Chroma subsampling : 4:2:0
Bit depth : 8 bits
Scan type : Progressive
Bits/(Pixel*Frame) : 0.049
Stream size : 614 MiB (87%)
Source stream size : 642 MiB (91%)
Color range : Limited
Color primaries : BT.709
Transfer characteristics : BT.709
Matrix coefficients : BT.709
Codec configuration box : avcC

Audio
ID : 2
Format : AAC LC
Format/Info : Advanced Audio Codec Low Complexity
Codec ID : mp4a-40-2
Duration : 45 min 56 s
Bit rate mode : Variable
Bit rate : 192 kb/s
Maximum bit rate : 202 kb/s
Channel(s) : 2 channels
Channel layout : L R
Sampling rate : 44.1 kHz
Frame rate : 43.066 FPS (1024 SPF)
Compression mode : Lossy
Stream size : 63.0 MiB (9%)
Default : Yes
Alternate group : 1

点击图片可查看大图

软字幕无法在截图上展现,HDR版本/杜比视界版本截图会出现颜色异常,请使用支持的设备播放!

部分资源为软字幕,移动端推荐播放器:MxPlayer,nPlayer,infuse ,其他播放器请自行尝试。

部分资源为软字幕,电脑端推荐播放器:PotPlayer,完美解码,KMPLAYER,其他播放器请自行尝试。



1 个附件 售价 大小 下载 时间

Destined.S01.2023.1080p.IQY.WEB-DL.H264.AAC-BlackTV[BTBTT].torrent 0 金币 6.23K 371 次 8月前

#1楼
发帖时间:2023-06-26 20:23:02   |   回复数:0
游客组