BILL36
超凡入圣№

[2023] [大陆] [剧情] [WEB-4K] 武神主宰[第19集][国语配音/中文字幕].Dominator.of.Martial.Gods.S01.2023.2160p.WEB-DL.H265.AAC-S

-->

完整标题:武神主宰[第19集][国语配音/中文字幕].Dominator.of.Martial.Gods.S01.2023.2160p.WEB-DL.H265.AAC-SeeWEB 0.85GB



◎标  题 武神主宰
◎年  代 2023
◎产  地 中国大陆
◎类  别 剧情 / 古装
◎语  言 汉语普通话
◎IMDb链接 https://www.imdb.com/title//
◎豆瓣链接 https://movie.douban.com/subject/35400758/
◎导  演 发飙的蜗牛 Tai Wang
      孙润 Run Sun
◎编  剧 发飙的蜗牛 Tai Wang
      暗魔师 Lihua Zhang

◎简  介
    武域上神秦尘,天武大陆的一代传奇,因被心爱的女人和挚友背叛陨落。数百年后,其意识意外在大玄国的一名同名少年体内觉醒。少年秦尘利用上神造诣,凝神功、炼神丹、逆天而上、强势崛起,结识了一帮志同道合的伙伴,从此踏上了一段震惊大陆之旅。

##### MediaInfo ######
General
Complete name : 武神主宰.Dominator.of.Martial.Gods.S01E19.2023.2160p.WEB-DL.H265.AAC-SeeWEB.mp4
Format : MPEG-4
Format profile : Base Media
Codec ID : isom (isom/iso2/mp41)
File size : 870 MiB
Duration : 33 min 21 s
Overall bit rate : 3 645 kb/s
Writing application : OurTV Multimedia Platform

Video
ID : 1
Format : HEVC
Format/Info : High Efficiency Video Coding
Format profile : Main@L5@Main
Codec ID : hev1
Codec ID/Info : High Efficiency Video Coding
Duration : 33 min 21 s
Bit rate : 3 446 kb/s
Width : 3 840 pixels
Height : 1 624 pixels
Display aspect ratio : 2.35:1
Frame rate mode : Constant
Frame rate : 25.000 FPS
Color space : YUV
Chroma subsampling : 4:2:0
Bit depth : 8 bits
Bits/(Pixel*Frame) : 0.022
Stream size : 822 MiB (95%)
Color range : Limited
Color primaries : BT.709
Transfer characteristics : BT.709
Matrix coefficients : BT.709
Codec configuration box : hvcC

Audio
ID : 2
Format : AAC LC
Format/Info : Advanced Audio Codec Low Complexity
Codec ID : mp4a-40-2
Duration : 33 min 21 s
Bit rate mode : Constant
Bit rate : 192 kb/s
Channel(s) : 2 channels
Channel layout : L R
Sampling rate : 44.1 kHz
Frame rate : 43.066 FPS (1024 SPF)
Compression mode : Lossy
Stream size : 45.8 MiB (5%)
Default : Yes
Alternate group : 1

点击图片可查看大图

软字幕无法在截图上展现,HDR版本/杜比视界版本截图会出现颜色异常,请使用支持的设备播放!

部分资源为软字幕,移动端推荐播放器:MxPlayer,nPlayer,infuse ,其他播放器请自行尝试。

部分资源为软字幕,电脑端推荐播放器:PotPlayer,完美解码,KMPLAYER,其他播放器请自行尝试。



1 个附件 售价 大小 下载 时间

Dominator.of.Martial.Gods.S01.2023.2160p.WEB-DL.H265.AAC-SeeWEB[BTBTT].torrent 0 金币 4.87K 210 次 8月前

#1楼
发帖时间:2023-06-26 18:47:52   |   回复数:0
游客组