travismk
一代宗师

[2016] [其它] [其它] [WEB-1080P] 罗伯特·梅普勒索普:看看那些照片 Mapplethorpe.Look.at.the.Pictures.2016.1080p.HMAX.WEBRip.DD5.1.

-->

帖子完整标题:罗伯特·梅普勒索普:看看那些照片 Mapplethorpe.Look.at.the.Pictures.2016.1080p.HMAX.WEBRip.DD5.1.x264-tijuco 6.52GB



◎标  题 罗伯特·梅普勒索普:看看那些照片
◎片  名 Mapplethorpe: Look at the Pictures
◎年  代 2016
◎产  地 美国 / 德国
◎类  别 纪录片
◎语  言 英语
◎上映日期 2016-03-20(美国)
◎IMDb评分 7.6/10 (1407人评价)
◎IMDb链接 https://www.imdb.com/title/tt5275838/
◎豆瓣链接 https://movie.douban.com/subject/26681645/
◎片  长 109分钟

◎标  签 纪录片 / 摄影 / 罗伯特·梅普勒索普 / 艺术 / 美国 / 同性 / 2016 / Documentary

◎简  介
    太多美麗稍縱即逝,在眼前匆匆流走,即使再用力抓緊,還是留不住在掌心。   攝影師有著讓平凡人恨得牙癢癢的天賦。他們透過鏡頭,咔嚓一聲,世界變成平面,美麗不減。六十年代,有著這樣一個拿著相機的壞孩子,Robert Mapplethorpe是著名詩人Patti Smith的男友,也為Andy Warhol拍下經典的人像照。他將種族、同性戀與禁忌性愛拍下,溫柔的光線襯托著硬倔的肌肉線條,矛盾而美麗。這種衝突的美感,挑戰藝術的底線,震驚社會,震怒國會。也許真的有生不逢時這回事,來到今天,他的成就終於得到,兩大藝術館爭相舉辦以他為題的展覽。   《黑暗王子:攝慾人生》帶你走進Mapplethorpe的黑白世界,在他從未曝光的生命碎片中,拼湊出他比作品來得更要精彩的人生。

Video
ID : 1
Format : AVC
Format/Info : Advanced Video Codec
Format profile : [email protected]
Format settings : CABAC / 4 Ref Frames
Format settings, CABAC : Yes
Format settings, Reference frames : 4 frames
Codec ID : V_MPEG4/ISO/AVC
Duration : 1 h 48 min
Bit rate mode : Variable
Bit rate : 8 222 kb/s
Maximum bit rate : 12.4 Mb/s
Width : 1 920 pixels
Height : 1 080 pixels
Display aspect ratio : 16:9
Frame rate mode : Constant
Frame rate : 23.976 (24000/1001/189150) FPS
Color space : YUV
Chroma subsampling : 4:2:0
Bit depth : 8 bits
Scan type : Progressive
Bits/(Pixel*Frame) : 0.165
Stream size : 6.23 GiB (96%)
Default : Yes
Forced : No
Color range : Limited
Color primaries : BT.709
Transfer characteristics : BT.709
Matrix coefficients : BT.709

Audio
ID : 2
Format : AC-3
Format/Info : Audio Coding 3
Commercial name : Dolby Digital
Codec ID : A_AC3
Duration : 1 h 48 min
Bit rate mode : Constant
Bit rate : 384 kb/s
Channel(s) : 6 channels
Channel layout : L R C LFE Ls Rs
Sampling rate : 48.0 kHz
Frame rate : 31.250 FPS (1536 SPF)
Compression mode : Lossy
Stream size : 298 MiB (4%)
Title : English
Language : English
Service kind : Complete Main
Default : Yes
Forced : No

Text #1
ID : 3
Format : UTF-8
Codec ID : S_TEXT/UTF8
Codec ID/Info : UTF-8 Plain Text
Duration : 1 h 47 min
Bit rate : 105 b/s
Frame rate : 0.516 FPS
Count of elements : 3339
Stream size : 83.1 KiB (0%)
Title : English (SDH)
Language : English
Default : No
Forced : No

Text #2
ID : 4
Format : UTF-8
Codec ID : S_TEXT/UTF8
Codec ID/Info : UTF-8 Plain Text
Duration : 1 h 47 min
Bit rate : 116 b/s
Frame rate : 0.552 FPS
Count of elements : 3562
Stream size : 92.1 KiB (0%)
Title : Spanish (SDH)
Language : Spanish
Default : No
Forced : No





1 个附件 售价 大小 下载 时间

Mapplethorpe.Look.at.the.Pictures.2016.1080p.HMAX.WEBRip.DD5.1.x264-tijuco.torrent 0 金币 16.99K 448 次 2月前

#1楼
发帖时间:2022-09-25 09:25:55   |   回复数:0
游客组