squallzhao
一代宗师

[2016] [其它] [喜剧] [BD-1080P] 缩水情人梦 Up.For.Love.2016.FRENCH.1080p.BluRay.x264.DTS-iKiW 9.06GB

-->

帖子完整标题:缩水情人梦 Up.For.Love.2016.FRENCH.1080p.BluRay.x264.DTS-iKiW 9.06GB



◎译  名 缩水情人梦 / 我的哈比情人(台) / 缩水情人梦(港) / 最萌身高差 / Up for Love
◎片  名 Un homme à la hauteur
◎年  代 2016
◎产  地 法国
◎类  别 喜剧 / 爱情
◎语  言 法语 / 英语
◎上映日期 2016-05-04(法国)
◎IMDb链接 https://www.imdb.com/title/tt4699388/
◎豆瓣评分 6.8/10 (4507人评价)
◎豆瓣链接 https://movie.douban.com/subject/26638831/
◎片  长 98分钟
◎导  演 洛朗·蒂拉尔 Laurent Tirard (id:1274917)
◎编  剧 马科斯·卡内瓦莱 Marcos Carnevale (id:1050863)
      洛朗·蒂拉尔 Laurent Tirard (id:1274917)
      格雷古瓦·维涅隆 Grégoire Vigneron (id:1274924)
◎演  员 让·杜雅尔丹 Jean Dujardin (id:1018213)
      维尔日妮·埃菲拉 Virginie Efira (id:1187894)
      塞德里克·康 Cédric Kahn (id:1018714)
      凯撒·东布瓦 César Domboy (id:1255971)
      克里斯蒂安·妮科尼尔 Christiane Conil (id:1363401)
      埃里克·博格 Eric Berger (id:1066172)
      马里亚姆·特凯亚 Myriam Teka?a (id:1321696)
      杰弗瑞·古艾 Geoffrey Cou?t (id:1360793)

◎简  介
  戴安(维吉妮·艾菲拉 Virginie Efira 饰)刚刚结束了一段失败的婚姻,虽然感情不顺,但戴安拥有美丽的外貌,幽默的个性,开朗的性格,所有人都相信,她一定能够遇到另一段美好的爱情,对此,戴安也做足了心里建设,自信满满。
某日,戴安稀里糊涂的弄丢了手机,一位名叫亚历山大(让·杜雅尔丹 Jean Dujardin 饰)的男子见到了她的手机,联系她想要将手机归还。在电话里温文尔雅非常绅士的亚历山大一下子就吸引了戴安的注意,她觉得这整件事情就仿佛一个美好爱情故事的完美开端。然而,当戴安亲眼见到亚历山大时,才发现对方的身高竟然比自己矮一大截,戴安能否接受这身高上的巨大差距呢?

Video
ID : 1
Format : AVC
Format/Info : Advanced Video Codec
Format profile : [email protected]
Format settings : CABAC / 5 Ref Frames
Format settings, CABAC : Yes
Format settings, Reference frames : 5 frames
Codec ID : V_MPEG4/ISO/AVC
Duration : 1 h 37 min
Bit rate : 11.6 Mb/s
Width : 1 920 pixels
Height : 800 pixels
Display aspect ratio : 2.40:1
Frame rate mode : Constant
Frame rate : 24.000 FPS
Color space : YUV
Chroma subsampling : 4:2:0
Bit depth : 8 bits
Scan type : Progressive
Bits/(Pixel*Frame) : 0.315
Stream size : 7.93 GiB (88%)
Writing library : x264 core 133 r2334 a3ac64b
Encoding settings : cabac=1 / ref=5 / deblock=1:-3:-3 / analyse=0x3:0x113 / me=umh / subme=11 / psy=1 / psy_rd=1.00:0.00 / mixed_ref=1 / me_range=64 / chroma_me=1 / trellis=2 / 8x8dct=1 / cqm=0 / deadzone=21,11 / fast_pskip=0 / chroma_qp_offset=-4 / threads=36 / lookahead_threads=6 / sliced_threads=0 / nr=0 / decimate=0 / interlaced=0 / bluray_compat=0 / constrained_intra=0 / bframes=8 / b_pyramid=2 / b_adapt=2 / b_bias=0 / direct=3 / weightb=1 / open_gop=0 / weightp=2 / keyint=250 / keyint_min=24 / scenecut=40 / intra_refresh=0 / rc=2pass / mbtree=0 / bitrate=11600 / ratetol=1.0 / qcomp=0.60 / qpmin=0 / qpmax=69 / qpstep=4 / cplxblur=20.0 / qblur=0.5 / ip_ratio=1.40 / pb_ratio=1.30 / aq=1:0.80
Language : English
Default : Yes
Forced : No

Audio
ID : 2
Format : DTS
Format/Info : Digital Theater Systems
Codec ID : A_DTS
Duration : 1 h 37 min
Bit rate mode : Constant
Bit rate : 1 509 kb/s
Channel(s) : 6 channels
Channel layout : C L R Ls Rs LFE
Sampling rate : 48.0 kHz
Frame rate : 93.750 FPS (512 SPF)
Bit depth : 24 bits
Compression mode : Lossy
Stream size : 1.03 GiB (11%)
Title : 法语
Language : French
Default : Yes
Forced : No

Text #1
ID : 3
Format : UTF-8
Codec ID : S_TEXT/UTF8
Codec ID/Info : UTF-8 Plain Text
Duration : 1 h 31 min
Bit rate : 60 b/s
Frame rate : 0.227 FPS
Count of elements : 1243
Stream size : 40.4 KiB (0%)
Language : English
Default : No
Forced : No

Text #2
ID : 4
Format : ASS
Codec ID : S_TEXT/ASS
Codec ID/Info : Advanced Sub Station Alpha
Duration : 1 h 31 min
Bit rate : 198 b/s
Frame rate : 0.269 FPS
Count of elements : 1470
Compression mode : Lossless
Stream size : 132 KiB (0%)
Title : chs
Language : Chinese
Default : No
Forced : No

Text #3
ID : 5
Format : ASS
Codec ID : S_TEXT/ASS
Codec ID/Info : Advanced Sub Station Alpha
Duration : 1 h 31 min
Bit rate : 198 b/s
Frame rate : 0.269 FPS
Count of elements : 1470
Compression mode : Lossless
Stream size : 132 KiB (0%)
Title : cht
Language : Chinese
Default : No
Forced : No





1 个附件 售价 大小 下载 时间

Up.For.Love.2016.FRENCH.1080p.BluRay.x264.DTS-iKiW.torrent 0 金币 23.27K 490 次 3天前

#1楼
发帖时间:2022-08-06 18:13:32   |   回复数:0
游客组