squallzhao
一代宗师

[更 早] [其它] [剧情] [BD-1080P] 死亡基地 The.Depot.of.the.Dead.1959.POLISH.1080p.BluRay.x264-FLAME 14.43GB

-->

帖子完整标题:死亡基地 The.Depot.of.the.Dead.1959.POLISH.1080p.BluRay.x264-FLAME 14.43GB



◎译  名 死亡基地 / The Depot of the Dead
◎片  名 Baza ludzi umarlych
◎年  代 1959
◎产  地 波兰
◎类  别 剧情
◎语  言 波兰语
◎上映日期 1959-08-10
◎IMDb链接 https://www.imdb.com/title/tt0052608/
◎豆瓣链接 https://movie.douban.com/subject/3310850/
◎片  长 104 分钟
◎导  演 切斯拉夫·佩泰尔斯基 Czeslaw Petelski (id:1043310)
◎编  剧 Marek Hlasko Marek Hlasko (id:1015855)
      切斯拉夫·佩泰尔斯基 Czeslaw Petelski (id:1043310)
◎演  员 Tadeusz Kosudarski Tadeusz Kosudarski (id:1113976)
      Stanislaw Milski Stanislaw Milski (id:1117431)
      Józef Lodynski Józef Lodynski (id:1121336)
      塔德乌什·罗姆尼斯基 Tadeusz Lomnicki (id:1124421)
      Mieczyslaw Loza Mieczyslaw Loza (id:1125272)
      Antoni Odrowaz Antoni Odrowaz (id:1126247)
      Edward Wichura Edward Wichura (id:1161346)
      Zygmunt Kestowicz Zygmunt Kestowicz (id:1111992)
      罗曼·克洛索夫斯基 Roman Klosowski (id:1108675)
      Wlodzimierz Kwaskowski Wlodzimierz Kwaskowski (id:1108517)
      Adam Kwiatkowski Adam Kwiatkowski (id:1107284)
      Henryk Hunko Henryk Hunko (id:1104974)
      特雷莎·伊泽夫斯卡 Teresa Izewska (id:1102547)
      Juliusz Grabowski Juliusz Grabowski (id:1092808)
      Roman Hubczenko Roman Hubczenko (id:1091840)
      Aleksander Fogiel Aleksander Fogiel (id:1083564)
      莱昂·涅姆奇克 Leon Niemczyk (id:1054321)
      埃米尔·卡尔维茨 Emil Karewicz (id:1106157)
      Adam Walacinski Adam Walacinski (id:1052958)
      Kurt Weber Kurt Weber (id:1022151)
      Leokadia Migielska (id:1220716)
      兹比格涅夫·奇米列夫斯基 Zbigniew Chmielewski (id:1039689)

◎简  介
  Czeslaw Petelski是50年代波兰电影学院派的另一位重要导演,本片是他的代表作,其中的黑白摄影非常出色。
Set in the harsh wilderness of southeastern Poland, this violent drama portrays the story of hard-working truck drivers shocked out of their grueling routine when their new boss shows up with a beautiful wife in tow. Lonely and facing death each day from their hazardous jobs, the woman's presence explodes an already des...

Video
ID : 1
Format : AVC
Format/Info : Advanced Video Codec
Format profile : [email protected]
Format settings : CABAC / 4 Ref Frames
Format settings, CABAC : Yes
Format settings, Reference frames : 4 frames
Codec ID : V_MPEG4/ISO/AVC
Duration : 1 h 45 min
Bit rate : 19.3 Mb/s
Width : 1 696 pixels
Height : 1 080 pixels
Display aspect ratio : 16:10
Frame rate mode : Constant
Frame rate : 25.000 FPS
Color space : YUV
Chroma subsampling : 4:2:0
Bit depth : 8 bits
Scan type : Progressive
Bits/(Pixel*Frame) : 0.422
Stream size : 14.2 GiB (98%)
Writing library : x264 core 164 r3075 66a5bc1
Encoding settings : cabac=1 / ref=4 / deblock=1:-3:-3 / analyse=0x3:0x133 / me=umh / subme=10 / psy=1 / psy_rd=1.00:0.00 / mixed_ref=1 / me_range=24 / chroma_me=1 / trellis=2 / 8x8dct=1 / cqm=0 / deadzone=21,11 / fast_pskip=0 / chroma_qp_offset=-2 / threads=34 / lookahead_threads=5 / sliced_threads=0 / nr=0 / decimate=1 / interlaced=0 / bluray_compat=0 / constrained_intra=0 / bframes=8 / b_pyramid=2 / b_adapt=2 / b_bias=0 / direct=3 / weightb=1 / open_gop=0 / weightp=2 / keyint=250 / keyint_min=25 / scenecut=40 / intra_refresh=0 / rc_lookahead=60 / rc=crf / mbtree=1 / crf=19.5 / qcomp=0.60 / qpmin=0 / qpmax=69 / qpstep=4 / ip_ratio=1.40 / aq=3:0.70
Default : Yes
Forced : No

Audio
ID : 2
Format : FLAC
Format/Info : Free Lossless Audio Codec
Codec ID : A_FLAC
Duration : 1 h 45 min
Bit rate mode : Variable
Bit rate : 279 kb/s
Channel(s) : 2 channels
Channel layout : L R
Sampling rate : 48.0 kHz
Frame rate : 11.719 FPS (4096 SPF)
Bit depth : 16 bits
Compression mode : Lossless
Stream size : 210 MiB (1%)
Title : Polish FLAC 279 kbps
Writing library : libFLAC 1.3.3 (UTC 2019-08-04)
Language : Polish
Default : Yes
Forced : No

Text #1
ID : 3
Format : UTF-8
Codec ID : S_TEXT/UTF8
Codec ID/Info : UTF-8 Plain Text
Duration : 1 h 44 min
Bit rate : 40 b/s
Frame rate : 0.172 FPS
Count of elements : 1078
Stream size : 31.3 KiB (0%)
Title : English
Language : English
Default : Yes
Forced : Yes

Text #2
ID : 4
Format : PGS
Codec ID : S_HDMV/PGS
Codec ID/Info : Picture based subtitle format used on BDs/HD-DVDs
Duration : 1 h 44 min
Bit rate : 20.3 kb/s
Frame rate : 0.328 FPS
Count of elements : 2064
Stream size : 15.2 MiB (0%)
Title : English
Language : English
Default : No
Forced : No

Menu
00:00:00.000 : en:Chapter 01
00:02:53.760 : en:Chapter 02
00:16:34.080 : en:Chapter 03
00:29:10.080 : en:Chapter 04
00:40:43.200 : en:Chapter 05
00:53:00.480 : en:Chapter 06
01:06:07.680 : en:Chapter 07
01:21:44.640 : en:Chapter 08
01:34:24.000 : en:Chapter 09





1 个附件 售价 大小 下载 时间

The.Depot.of.the.Dead.1959.POLISH.1080p.BluRay.x264-FLAME.torrent 0 金币 18.75K 385 次 3天前

#1楼
发帖时间:2022-08-06 18:12:31   |   回复数:0
游客组