topgood
武林盟主

[2007] [其它] [喜剧] [WEB-1080P] 牛排 Steak.2007.FRENCH.1080p.AMZN.WEBRip.DD5.1.x264-Fxe 5.77GB

-->

帖子完整标题:牛排 Steak.2007.FRENCH.1080p.AMZN.WEBRip.DD5.1.x264-Fxe 5.77GB



◎译  名 牛排
◎片  名 Steak
◎年  代 2007
◎产  地 法国 / 加拿大
◎类  别 喜剧 / 科幻
◎语  言 法语
◎上映日期 2007-06-20(法国)
◎IMDb链接 https://www.imdb.com/title/tt0889665/
◎豆瓣评分 6.8/10 (118人评价)
◎豆瓣链接 https://movie.douban.com/subject/2997173/
◎片  长 82分钟
◎导  演 昆汀·杜皮约 Quentin Dupieux (id:1315649)
◎编  剧 昆汀·杜皮约 Quentin Dupieux (id:1315649)
◎演  员 埃里克·朱多尔 Eric Judor (id:1023375)
      朗齐·贝迪亚 Ramzy Bedia (id:1032792)
      乔纳森·朗贝尔 Jonathan Lambert (id:1105505)
      Mark Latrémouille Mark Latrémouille (id:1188049)
      雨果林·什维特·兰黛斯科 Hugolin Chevrette-Landesque (id:1367831)
      Caroline Bernard Caroline Bernard (id:1052132)
      Steve Barry Steve Barry (id:1007295)
      托马斯·朗曼 Thomas Langmann (id:1019344)
      昆汀·杜皮约 Quentin Dupieux (id:1315649)
      Isabelle Malenfant Isabelle Malenfant (id:1044499)
      艾德里安·莫罗特 Adrien Morot (id:1292524)

◎简  介
  George is the scapegoat of his classmates. One day he cracks and shoots them. His best and only friend Blaise is accused in his place and sentenced to 7 years in a psychiatric hospital. At the day of his release, Blaise realizes he only has one family: his best friend George. But he does not want to hear about his childhood friend, as he tries to integrate with the "Chivers" a ...

Video
ID : 1
Format : AVC
Format/Info : Advanced Video Codec
Format profile : [email protected]
Format settings : CABAC / 4 Ref Frames
Format settings, CABAC : Yes
Format settings, Reference frames : 4 frames
Codec ID : V_MPEG4/ISO/AVC
Duration : 1 h 23 min
Bit rate mode : Constant
Bit rate : 9 418 kb/s
Nominal bit rate : 10 000 kb/s
Width : 1 920 pixels
Height : 1 040 pixels
Display aspect ratio : 1.85:1
Frame rate mode : Constant
Frame rate : 23.976 (24000/1001/189150) FPS
Color space : YUV
Chroma subsampling : 4:2:0
Bit depth : 8 bits
Scan type : Progressive
Bits/(Pixel*Frame) : 0.197
Stream size : 5.50 GiB (95%)
Default : Yes
Forced : No
Color range : Limited
Color primaries : BT.709
Transfer characteristics : BT.709
Matrix coefficients : BT.709

Audio
ID : 2
Format : AC-3
Format/Info : Audio Coding 3
Commercial name : Dolby Digital
Codec ID : A_AC3
Duration : 1 h 23 min
Bit rate mode : Constant
Bit rate : 448 kb/s
Channel(s) : 6 channels
Channel layout : L R C LFE Ls Rs
Sampling rate : 48.0 kHz
Frame rate : 31.250 FPS (1536 SPF)
Compression mode : Lossy
Stream size : 268 MiB (5%)
Language : French
Service kind : Complete Main
Default : Yes
Forced : No

Text
ID : 3
Format : UTF-8
Codec ID : S_TEXT/UTF8
Codec ID/Info : UTF-8 Plain Text
Duration : 1 h 17 min
Bit rate : 35 b/s
Frame rate : 0.183 FPS
Count of elements : 853
Stream size : 20.5 KiB (0%)
Language : English
Default : Yes
Forced : No





1 个附件 售价 大小 下载 时间

Steak.2007.FRENCH.1080p.AMZN.WEBRip.DD5.1.x264-Fxe.torrent 0 金币 15.05K 189 次 3天前

#1楼
发帖时间:2022-08-06 17:37:59   |   回复数:0
游客组